28 Days Later 2002 DVDRIP XviD AC3 TRiNiTY torrent download locations



Torrent contents

Size: 1.37 GB

Hash: E5352BB38F00B39B92BE7D02E9449E1472FA4E0E

Torrent description(s)

  • kickasstorrents
Format : AVI
Format/Info : Audio Video Interleave
File size : 1.37 GiB
Duration : 1h 48mn
Overall bit rate : 1 802 Kbps

Video
ID : 0
Format : MPEG-4 Visual
Format profile : Advanced [email protected]
Format settings, BVOP : 2
Format settings, QPel : No
Format settings, GMC : No warppoints
Format settings, Matrix : Default (H.263)
Muxing mode : Packed bitstream
Codec ID : XVID
Codec ID/Hint : XviD
Duration : 1h 48mn
Bit rate : 1 346 Kbps
Width : 672 pixels
Height : 352 pixels
Display aspect ratio : 1.909
Frame rate : 25.000 fps
Color space : YUV
Chroma subsampling : 4:2:0
Bit depth : 8 bits
Scan type : Progressive
Compression mode : Lossy
Bits/(Pixel*Frame) : 0.228
Stream size : 1.02 GiB (75%)
Writing library : XviD 1.2.1 (UTC 2008-12-04)

Audio
ID : 1
Format : AC-3
Format/Info : Audio Coding 3
Mode extension : CM (complete main)
Codec ID : 2000
Duration : 1h 48mn
Bit rate mode : Constant
Bit rate : 448 Kbps
Channel(s) : 6 channels
Channel positions : Front: L C R, Side: L R, LFE
Sampling rate : 48.0 KHz
Bit depth : 16 bits
Compression mode : Lossy
Stream size : 348 MiB (25%)
Alignment : Aligned on interleaves
Interleave, duration : 64 ms (1.60 video frames)
Interleave, preload duration : 192 ms

Related torrents

Title
Size
Seeds
Peers
The.New.Guy.2002.DVDRip.x264 in 'Video - Movies'
718.07 MB
-
-
28.Days.Later.2002.1080p.BluRay.x264.DTS-RARBG in 'movies - unsorted'
10.31 GB
-
-
28.Weeks.Later.2007.1080p.BluRay.x264.DTS-RARBG in 'movies - unsorted'
7.39 GB
-
-
La Pensionnaire (2002/DVDRip) in 'Adult - Unsorted'
576.36 MB
-
-
Poolhall.Junkies.2002.DVDRip.MPEG2.Dual.Audio.AC3.5.1.AC3.2.0.English.Spanish-PR in 'movies - unsorted'
4.72 GB
-
-
Private Peepshow Special 5 (Peepshow Special) [2002 DVDRip] in 'other - unsorted'
1.39 GB
-
-
28일 후 28.Days.Later.2002.1080p.BluRay.x264 AVCHD in 'movies - other'
7.95 GB
-
-
Hindi Dubbed Horror 28 Days Later 2002 Dual Audio hindi english BRRip 480p 300MB.mkv in 'movies - unsorted'
318.2 MB
-
-
28 Days Later (2002) 1080p BrRip 5.1 x264 aac [TuGAZx] in 'movies - unsorted'
3.04 GB
-
-
28일 후 28.Days.Later.2002.720p.BluRay.x264 HALCYON in 'movies - other'
4.37 GB
-
-

Share