28 Days Later 2002 DVDRIP XviD AC3 TRiNiTY torrent download locations



Torrent contents

Size: 1.37 GB

Hash: E5352BB38F00B39B92BE7D02E9449E1472FA4E0E

Torrent description(s)

Format : AVI
Format/Info : Audio Video Interleave
File size : 1.37 GiB
Duration : 1h 48mn
Overall bit rate : 1 802 Kbps

Video
ID : 0
Format : MPEG-4 Visual
Format profile : Advanced [email protected]
Format settings, BVOP : 2
Format settings, QPel : No
Format settings, GMC : No warppoints
Format settings, Matrix : Default (H.263)
Muxing mode : Packed bitstream
Codec ID : XVID
Codec ID/Hint : XviD
Duration : 1h 48mn
Bit rate : 1 346 Kbps
Width : 672 pixels
Height : 352 pixels
Display aspect ratio : 1.909
Frame rate : 25.000 fps
Color space : YUV
Chroma subsampling : 4:2:0
Bit depth : 8 bits
Scan type : Progressive
Compression mode : Lossy
Bits/(Pixel*Frame) : 0.228
Stream size : 1.02 GiB (75%)
Writing library : XviD 1.2.1 (UTC 2008-12-04)

Audio
ID : 1
Format : AC-3
Format/Info : Audio Coding 3
Mode extension : CM (complete main)
Codec ID : 2000
Duration : 1h 48mn
Bit rate mode : Constant
Bit rate : 448 Kbps
Channel(s) : 6 channels
Channel positions : Front: L C R, Side: L R, LFE
Sampling rate : 48.0 KHz
Bit depth : 16 bits
Compression mode : Lossy
Stream size : 348 MiB (25%)
Alignment : Aligned on interleaves
Interleave, duration : 64 ms (1.60 video frames)
Interleave, preload duration : 192 ms

Related torrents

Title
Size
Seeds
Peers
28 Days Later[2002]DvDrip[Eng]-BugZ in 'Video - Movies'
700.4 MB
-
-
28 Days Later[2002]DvDrip[Eng][SweSub]-Martenz.avi in 'Video - Movies'
1.86 GB
-
-
28.Days.Later.2002.SWESUB.DVDRip.XviD-Pride86 in 'Video - Movies'
1.37 GB
-
-
28.Days.Later.2002.Swesub.DVDrip.Royskatt in 'Video - Movies'
701.19 MB
-
-
28.Days.Later[2002]DvDrip[Eng]-aXXo in 'Video - Movies'
700.98 MB
-
-
28 Days Later (2002) [DVDRIP]-EcKstasyMEDIA in 'Video - Movies'
700.98 MB
-
-
28 Days Later dvdrip 2002 in 'Video - Movies'
701.03 MB
-
-
28 Days Later. 2002. DvDrip. Rysare. Swesub. prien in 'Video - Movies'
701.24 MB
-
-
28 Days Later(2002)DVDRip.AC3(ENG)-DROCK in 'Video - Movies'
700.54 MB
-
-
28 Days Later 2002 350Mb DvDrip x264 Eng[Sub]--ChEtAn in 'Video - Movies'
362.25 MB
-
-
28.DAYS.LATER.2002.DVDRip.Divx.avi in 'Video - Movies'
1.06 GB
-
-

Share