28 Weeks Later (2007) 720p MP4 torrent download locations



Torrent contents

Size: 1.02 GB

Hash: DB2FFA7049D8CCB35DF5E81CB9E7E581DE781850

Torrent description(s)

  • isohunt.to
Six months after the rage virus was inflicted on the population of Great Britain, the US Army helps to secure a small area of London for the survivors to repopulate and start again. But not everything goes to plan.
SCREENSHOTS: http://bayimg.com/hakgCAaEP http://bayimg.com/hAkGHaAEP http://bayimg.com/HaKGJaaEp http://bayimg.com/haKGOaaep http://bayimg.com/haKgpAAeP http://bayimg.com/IakGBAaep http://bayimg.com/IAKgDaaEP http://bayimg.com/iakGeAaEP
Please seed to keep this alive!
General
Format                         : MPEG-4
Format profile                 : Base Media / Version 2
Codec ID                       : mp42
File size                      : 1.02 GiB
Duration                       : 1h 40mn
Overall bit rate mode          : Variable
Overall bit rate               : 1 464 Kbps
Video
ID                             : 1
Format                         : AVC
Format/Info                    : Advanced Video Codec
Format profile                 : [email protected]
Format settings, CABAC         : Yes
Format settings, ReFrames      : 6 frames
Codec ID                       : avc1
Codec ID/Info                  : Advanced Video Coding
Duration                       : 1h 40mn
Bit rate mode                  : Variable
Bit rate                       : 1 300 Kbps
Width                          : 1 280 pixels
Height                         : 694 pixels
Display aspect ratio           : 16:9
Frame rate mode                : Variable
Frame rate                     : 23.976 fps
Minimum frame rate             : 23.419 fps
Maximum frame rate             : 24.390 fps
Color space                    : YUV
Chroma subsampling             : 4:2:0
Bit depth                      : 8 bits
Scan type                      : Progressive
Bits/(Pixel*Frame)             : 0.061
Stream size                    : 930 MiB (89%)
Writing library                : x264 core 120
Audio
ID                             : 2
Format                         : AAC
Format/Info                    : Advanced Audio Codec
Format profile                 : LC
Codec ID                       : 40
Duration                       : 1h 40mn
Bit rate mode                  : Variable
Bit rate                       : 160 Kbps
Maximum bit rate               : 300 Kbps
Channel(s)                     : 2 channels
Channel positions              : Front: L R
Sampling rate                  : 48.0 KHz
Compression mode               : Lossy
Stream size                    : 114 MiB (11%)
Language                       : English
Please seed to keep this alive!		

Related torrents

Title
Size
Seeds
Peers
28 Weeks Later[2007]BDRip[720p]H.264 - D-L33T3[Pilot RG] in 'Video - HD - Movies'
4.86 GB
-
-
28.Weeks.Later.2007.720p.BluRay.x264-HD in 'Video - HD - Movies'
4.37 GB
-
-
28 Weeks Later (2007) BRRip 720p x264 AAC-Ameet6233 in 'Video - HD - Movies'
756.19 MB
-
-
28 Weeks Later (2007) 720p BrRip x264 - 700mb - YIFY in 'Video - HD - Movies'
697.83 MB
-
-
28 Weeks Later (2007) BluRay 720p 650MB Ganool [JohnPc666] in 'Video - HD - Movies'
650.36 MB
-
-
28 Weeks Later (2007) 720p in 'Video - HD - Movies'
697.66 MB
-
-
28 Weeks Later 2007 720p BRRip x264 acc vice in 'Video - HD - Movies'
2.13 GB
-
-
28 Weeks Later (2007) 720p MP4 in 'Video - HD - Movies'
1.02 GB
-
-
28.Days.And.Weeks.Later.2002-2007.MULTiSubs.720p.BluRay.DTS.x264 in 'Video - Movies'
14.15 GB
-
-
28 Weeks Later 2007 720p BRRip AC3 x264-WEEDMADE in 'Video - HD - Movies'
1.91 GB
-
-
28 Weeks Later 2007 BRRip XvidHD 720p-NPW[www.ilovetorrents.com] in 'english-translated anime'
2.16 GB
-
-

Share