A Million Ways To Die In The West 2014 NEW SOURCE NO SUBS HDCAM torrent download locations



Torrent contents

Size: 737 MB

Hash: 79AB1159C661E107C94C906F14993528C256949A

Torrent description(s)

  • isohunt.to
NEW SOURCE....NO SUBS....VERY GOOD VIDEO AND MOVIE.......ENJOY.....PIMP4003

SOURCE: SpEcTre...THANKS

SCREENSHOTS
 
http://pimp4003.net/torrents.php?id=79ab1159c661e107c94c906f14993528c256949a

A Million Ways To Die In The West 2014 NEW SOURCE NO SUBS HDCAM x264 Pimp4003
 
http://www.imdb.com/title/tt2557490/

As a cowardly farmer begins to fall for the mysterious new woman in town, he must put his new-found courage to the test when her husband, a notorious gun-slinger, announces his arrival.

Director: Seth MacFarlane
Writers: Seth MacFarlane, Alec Sulkin, 1 more credit »
Stars: Seth MacFarlane, Charlize Theron, Liam Neeson | See full cast and crew »

Video
ID                                       : 2
Format                                   : AVC
Format/Info                              : Advanced Video Codec
Format profile                           : [email protected]
Format settings, CABAC                   : No
Format settings, ReFrames                : 1 frame
Format settings, GOP                     : M=1, N=25
Muxing mode                              : Container [email protected]
Codec ID                                 : avc1
Codec ID/Info                            : Advanced Video Coding
Duration                                 : 1h 49mn
Bit rate                                 : 807 Kbps
Width                                    : 640 pixels
Height                                   : 480 pixels
Display aspect ratio                     : 4:3
Frame rate mode                          : Constant
Frame rate                               : 23.976 fps
Original frame rate                      : 23.000 fps
Color space                              : YUV
Chroma subsampling                       : 4:2:0
Bit depth                                : 8 bits
Scan type                                : Progressive
Bits/(Pixel*Frame)                       : 0.110
Stream size                              : 633 MiB (86%)
Writing library                          : 
Language                                 : English

Audio
ID                                       : 1
Format                                   : AAC
Format/Info                              : Advanced Audio Codec
Format profile                           : LC
Codec ID                                 : 40
Duration                                 : 1h 49mn
Bit rate mode                            : Constant
Bit rate                                 : 128 Kbps
Channel(s)                               : 2 channels
Channel positions                        : Front: L R
Sampling rate                            : 48.0 KHz
Compression mode                         : Lossy
Stream size                              : 100 MiB (14%)
Language                                 : English
		

Related torrents

Title
Size
Seeds
Peers
A Good Day to Die Hard 2013 DVDRip XViD-BENDER in 'Movies'
621.45 MB
-
-
A Good Day to Die Hard (2013) DVDRIP VERSION XD - GREY in 'Movies'
1.31 GB
-
-
A Good Day to Die Hard (2013) BLUCD XD EXCLUSIVE in 'Movies'
1.65 GB
-
-
A good Day to Die Hard (2013) XviD in 'Movies'
702.09 MB
-
-
A Good Day to Die Hard (2013) in 'Movies'
719.84 MB
-
-
Die Hard 5 A Good Day To Die Hard (2013) DVDRip XViD - FXM in 'Movies'
805.43 MB
-
-
A Good Day to Die Hard (2013).DVDRIP- SPARKS in 'Movies'
718.14 MB
-
-
A Good Day to Die Hard (2013).DVDRIP- 8BaLLRiPS in 'Movies'
718.14 MB
-
-
A Good Day to Die Hard XviD 2013 - sofix in 'Movies'
702.09 MB
-
-
A Good Day to Die Hard (2013) HDTVRip in 'Movies'
701.62 MB
-
-
A Good Day to Die Hard 2013 DVDRip XviD-JESSY in 'Movies'
726.55 MB
-
-

Share