A.Million.Ways.To.Die.In.The.West.2014.CAM.v3.NEW.SOURCE.XviD.MP torrent download locations



Torrent contents

Size: 3.19 GB

Hash: 34F2E96ED2A772CF9D734AF4F222BD402058F8F0

Torrent description(s)

  • isohunt.to
A.Million.Ways.To.Die.In.The.West.2014.CAM.v3.NEW.SOURCE.XviD.MP3-RARBG

image

Title: A Million Ways to Die in the West (2014)
IMDB Rating: 6.4/10
Genres: Comedy , Western
Actors: Seth MacFarlane , Charlize Theron , Amanda Seyfried , Liam Neeson , Giovanni Ribisi , Neil Patrick Harris , Sarah Silverman , Christopher Hagen , Wes Studi , Matt Clark , Evan Jones , Aaron McPherson , Rex Linn , Brett Rickaby , Alex Borstein
Runtime: 116
Year: 2014
Plot:
As a cowardly farmer begins to fall for the mysterious new woman in town| he must put his new-found courage to the test when her husband| a notorious gun-slinger|
announces his arrival.

A.Million.Ways.To.Die.In.The.West.2014.CAM.v3.NEW.SOURCE.XviD.MP3-RARBG

http://www.imdb.com/title/tt2557490/

Screens:
image
image
image
image
image
image
image
image
image
image
image
image

Info:
Format : AVI
Format/Info : Audio Video Interleave
Format profile : OpenDML
File size : 3.19 GiB
Duration : 1h 50mn
Overall bit rate : 4 147 Kbps
Movie name : RARBG.COM - A.Million.Ways.To.Die.In.The.West.2014.CAM.v3.NEW.SOURCE.XviD.MP3-RARBG
Writing library : VirtualDub build 35491/release
Comment : RARBG.COM - A.Million.Ways.To.Die.In.The.West.2014.CAM.v3.NEW.SOURCE.XviD.MP3-RARBG

Video
ID : 0
Format : MPEG-4 Visual
Format profile : [email protected]
Format settings, BVOP : No
Format settings, QPel : No
Format settings, GMC : No warppoints
Format settings, Matrix : Default (H.263)
Codec ID : XVID
Codec ID/Hint : XviD
Duration : 1h 50mn
Bit rate : 4 000 Kbps
Width : 1 280 pixels
Height : 572 pixels
Display aspect ratio : 2.25:1
Frame rate : 50.000 fps
Color space : YUV
Chroma subsampling : 4:2:0
Bit depth : 8 bits
Scan type : Progressive
Compression mode : Lossy
Bits/(Pixel*Frame) : 0.109
Stream size : 3.07 GiB (96%)
Writing library : Lavc55.61.100

Audio
ID : 1
Format : MPEG Audio
Format version : Version 1
Format profile : Layer 3
Mode : Joint stereo
Mode extension : MS Stereo
Codec ID : 55
Codec ID/Hint : MP3
Duration : 1h 50mn
Bit rate mode : Constant
Bit rate : 128 Kbps
Channel(s) : 2 channels
Sampling rate : 44.1 KHz
Compression mode : Lossy
Stream size : 101 MiB (3%)
Alignment : Aligned on interleaves
Interleave, duration : 26 ms (1.31 video frame)
Interleave, preload duration : 522 ms


Notes:
Sauce: GERMAN TS
This is the full blown video source , not touched except bitrate.
Greetz to everyone :)
A.Million.Ways.To.Die.In.The.West.2014.CAM.v3.NEW.SOURCE.XviD.MP3-RARBG

Auto IMDB: 
http://www.imdb.com/title/tt2557490/

-----------------------------------------
Screens : 
imageimageimageimageimageimageimageimageimageimageimageimage

-----------------------------------------
Auto Media Info :
Video Format........: MPEG-4 Visual
Codec ID............: XVID
Codec ID/Hint.......: XviD
Length..............: 1h50mn
Video...............: 1280x572 ( 50.000fps )
Bitrate.............: 4000Kbps
Audio Format........: MPEG Audio
Codec ID............: 55
Codec ID/Hint.......: MP3
Bit rate mode.......: Constant
Bitrate.............: 128Kbps
Channel(s)..........: 2 channels

		

Related torrents

Title
Size
Seeds
Peers
A.Million.Ways.To.Die.In.The.West.2014.CAM.v3.NEW.SOURCE.XviD.MP in 'Video - Movies'
3.19 GB
-
-

Share