APB.S01E07.HDTV.x264 MVGEE torrent download locations



Torrent contents

Size: 252.08 MB

Hash: BA45C9DD781987395A5DF1F19E261D095C0CD584

Torrent description(s)

  • thepiratebay
  • isohunt.to
APB.S01E07.HDTV.x264-MVGEE
 
http://www.imdb.com/title/tt5542294/

After witnessing a violent crime, a tech billionaire purchases a troubled police precinct, rebooting it as a private police force.

Year: 2016-
MPA Rating: N/A
Genres: Crime, Drama
Runtime: 43min
Rating: 7.2
Creators: Matt Nix, David Slack
Stars: Justin Kirk, Natalie Martinez, Taylor Handley

[img]http://i.imgur.com/juavlM7.jpg[/img]

Duration: 00:42:50.84, start: 0.000000, bitrate: 822 kb/s
Stream #0:0(und): Video: h264 (Constrained Baseline) (avc1 / 0x31637661), yuv420p, 720x404 [SAR 1:1 DAR 180:101], 687 kb/s, 25 fps, 25 tbr, 12800 tbn, 50 tbc Stream #0:1(und): Audio: aac (LC) (mp4a / 0x6134706D), 48000 Hz, stereo, fltp, 129 kb/s (default)
APB.S01E07.HDTV.x264-MVGEE

http://www.imdb.com/title/tt5542294/

After witnessing a violent crime, a tech billionaire purchases a troubled police precinct, rebooting it as a private police force.

Year: 2016-
MPA Rating: N/A
Genres: Crime, Drama
Runtime: 43min
Rating: 7.2
Creators: Matt Nix, David Slack
Stars: Justin Kirk, Natalie Martinez, Taylor Handley

[img]http://i.imgur.com/juavlM7.jpg[/img]

Duration: 00:42:50.84, start: 0.000000, bitrate: 822 kb/s
Stream #0:0(und): Video: h264 (Constrained Baseline) (avc1 / 0x31637661), yuv420p, 720x404 [SAR 1:1 DAR 180:101], 687 kb/s, 25 fps, 25 tbr, 12800 tbn, 50 tbc Stream #0:1(und): Audio: aac (LC) (mp4a / 0x6134706D), 48000 Hz, stereo, fltp, 129 kb/s (default)

Related torrents

Title
Size
Seeds
Peers
APB S01E07 HDTV x264-MVGEE in 'Television'
252.08 MB
-
-

Share