Beauty.And.The.Beast.2017.HDCAM.V2.x264 MVGEE torrent download locations

× Attention!
This torrent is marked as fake/passworded/virus.


Torrent contents

Size: 714.38 MB

Hash: AFAA704014A14D89A55DF77FFA37328B90BA4DEE

Torrent description(s)

  • thepiratebay
  • isohunt.to
Beauty.And.The.Beast.2017.HDCAM.V2.x264-MVGEE
 
http://www.imdb.com/title/tt2771200/

Disney's animated classic takes on a new form, with a widened mythology and an all-star cast. A young prince, imprisoned in the form of a beast, can be freed only by true love. What may be his only opportunity arrives when he meets Belle, the only human girl to ever visit the castle since it was enchanted.

Year: 2017
MPA Rating: PG
Genres: Family, Fantasy, Musical
Runtime: 2h 9min
Rating: 7.9
Creators: Ali Adler, Greg Berlanti, Andrew Kreisberg
Stars: Melissa Benoist, Mehcad Brooks, Chyler Leigh

[img]http://i.imgur.com/xrGZjZ4.jpg[/img]

Duration: 01:58:43.48, start: -0.012333, bitrate: 841 kb/s
Stream #0:0(und): Video: h264 (Constrained Baseline) (avc1 / 0x31637661), yuv420p, 720x304 [SAR 1:1 DAR 45:19], 721kb/s, 25 fps, 25 tbr, 12800 tbn, 50 tbc 
Stream #0:1(und): Audio: aac (LC) (mp4a / 0x6134706D), 48000 Hz, stereo, fltp, 114 kb/s (default)
Beauty.And.The.Beast.2017.HDCAM.V2.x264-MVGEE

http://www.imdb.com/title/tt2771200/

Disney's animated classic takes on a new form, with a widened mythology and an all-star cast. A young prince, imprisoned in the form of a beast, can be freed only by true love. What may be his only opportunity arrives when he meets Belle, the only human girl to ever visit the castle since it was enchanted.

Year: 2017
MPA Rating: PG
Genres: Family, Fantasy, Musical
Runtime: 2h 9min
Rating: 7.9
Creators: Ali Adler, Greg Berlanti, Andrew Kreisberg
Stars: Melissa Benoist, Mehcad Brooks, Chyler Leigh

[img]http://i.imgur.com/xrGZjZ4.jpg[/img]

Duration: 01:58:43.48, start: -0.012333, bitrate: 841 kb/s
Stream #0:0(und): Video: h264 (Constrained Baseline) (avc1 / 0x31637661), yuv420p, 720x304 [SAR 1:1 DAR 45:19], 721kb/s, 25 fps, 25 tbr, 12800 tbn, 50 tbc 
Stream #0:1(und): Audio: aac (LC) (mp4a / 0x6134706D), 48000 Hz, stereo, fltp, 114 kb/s (default)

Related torrents

Title
Size
Seeds
Peers
Beauty.and.the.Beast.2017.720p.BRRip.x264.AAC.-.Hon3y in 'Movies'
1021.83 MB
-
-
Beauty.and.the.Beast.2017.D.HDRip.21OOMB KOSHARA.avi in 'movies - unsorted'
2.05 GB
-
-
Beauty.and.the.Beast.2017.BRRip.x265-DiN in 'movies - unsorted'
760.09 MB
-
-
Beauty And The Beast 2017 FAMILY-FRIENDLY-VERSION 720p HC HDRip x264 mkv in 'movies - hd'
2.64 GB
-
-
Beauty and the Beast 2017 720p BRRIP X264 AC3-Z.[PRiME] in 'Movies'
3.17 GB
-
-

Share