Fast and furious 7 2015 Cam.iHD.Coversion.BX.H.264 torrent download locations



Torrent contents

Size: 916.77 MB

Hash: 90029FB5D2B0FE4F1D913B425ACB9C595C3C7801

Torrent description(s)

  • thepiratebay
Format                                   : MPEG-4
Format profile                           : Base Media / Version 2
Codec ID                                 : mp42
File size                                : 917 MiB
Duration                                 : 2h 11mn
Overall bit rate mode                    : Variable
Overall bit rate                         : 978 Kbps



Video
ID                                       : 1
Format                                   : AVC
Format/Info                              : Advanced Video Codec
Format profile                           : [email protected]
Format settings, CABAC                   : Yes
Format settings, ReFrames                : 3 frames
Format settings, GOP                     : M=3, N=33
Codec ID                                 : avc1
Codec ID/Info                            : Advanced Video Coding
Duration                                 : 2h 11mn
Bit rate                                 : 845 Kbps
Width                                    : 720 pixels
Height                                   : 360 pixels
Display aspect ratio                     : 2.000
Frame rate mode                          : Variable
Frame rate                               : 25.000 fps
Minimum frame rate                       : 25.000 fps
Maximum frame rate                       : 25.025 fps
Standard                                 : PAL
Color space                              : YUV
Chroma subsampling                       : 4:2:0
Bit depth                                : 8 bits
Scan type                                : Progressive
Bits/(Pixel*Frame)                       : 0.130
Stream size                              : 792 MiB (86%)
Language                                 : English
Encoded date                             : UTC 2015-04-29 21:10:12
Tagged date                              : UTC 2015-04-29 21:10:12
Color range                              : Limited
Color primaries                          : BT.601 PAL
Transfer characteristics                 : BT.470 System B, BT.470 System G
Matrix coefficients                      : BT.601
mdhd_Duration                            : 7860921



Audio
ID                                       : 2
Format                                   : AAC
Format/Info                              : Advanced Audio Codec
Format profile                           : LC
Codec ID                                 : 40
Duration                                 : 2h 11mn
Source duration                          : 2h 11mn
Bit rate mode                            : Variable
Bit rate                                 : 125 Kbps
Maximum bit rate                         : 215 Kbps
Channel(s)                               : 2 channels
Channel positions                        : Front: L R
Sampling rate                            : 48.0 KHz
Compression mode                         : Lossy
Stream size                              : 117 MiB (13%)
Source stream size                       : 117 MiB (13%)
Language                                 : English


Screens
 
http://postimg.org/image/d4uy3dghl/
 
http://postimg.org/image/nwodu7rwd/
 
http://postimg.org/image/ju2jkvyqp/
 
http://postimg.org/image/8etrjqx05/
 
http://postimg.org/image/77xwejaaj/
 
http://postimg.org/image/gr185i871/

Related torrents

Share