Good Will Hunting(1997)MPEG 4[DaScubaDude] torrent download locations



Torrent contents

Size: 1.19 GB

Hash: 0EA2B4C9E82506AD573FC2891B73B64356518FED

Torrent description(s)

  • thepiratebay
Good Will Hunting (1997)
R | 2h 6min | Drama | 9 January 1998 (USA)
General
Complete name                            : GoodWillHuntingGOODWILL_Title1.mp4
Format                                   : MPEG-4
Format profile                           : Base Media
Codec ID                                 : isom (isom/iso2/avc1/mp41)
File size                                : 1.19 GiB
Duration                                 : 2 h 6 min
Overall bit rate                         : 1 348 kb/s
Movie name                               : GOODWILL
Genre                                    : Drama
Writing application                      : Lavf54.6.100

Video
ID                                       : 1
Format                                   : AVC
Format/Info                              : Advanced Video Codec
Format profile                           : [email protected]
Format settings, CABAC                   : No
Format settings, ReFrames                : 6 frames
Codec ID                                 : avc1
Codec ID/Info                            : Advanced Video Coding
Duration                                 : 2 h 6 min
Bit rate                                 : 1 213 kb/s
Width                                    : 720 pixels
Height                                   : 540 pixels
Display aspect ratio                     : 4:3
Frame rate mode                          : Constant
Frame rate                               : 29.970 (30000/1001) FPS
Color space                              : YUV
Chroma subsampling                       : 4:2:0
Bit depth                                : 8 bits
Scan type                                : Progressive
Bits/(Pixel*Frame)                       : 0.104
Stream size                              : 1.07 GiB (90%)

Audio
ID                                       : 2
Format                                   : AAC
Format/Info                              : Advanced Audio Codec
Format profile                           : LC
Codec ID                                 : 40
Duration                                 : 2 h 6 min
Bit rate mode                            : Constant
Bit rate                                 : 128 kb/s
Channel(s)                               : 2 channels
Channel positions                        : Front: L R
Sampling rate                            : 44.1 kHz
Frame rate                               : 43.066 FPS (1024 spf)
Compression mode                         : Lossy
Stream size                              : 116 MiB (9%)
Default                                  : Yes
Alternate group                          : 1

Related torrents

Title
Size
Seeds
Peers
Good Will Hunting (1997) Xvid DVD Rip in 'english-translated anime'
698.35 MB
-
-
Good Will Hunting (1997) in 'Video - Movies'
2.02 GB
-
-
Good Will Hunting. 1997. AVI. Swesub. prien in 'Video - Movies'
700.44 MB
-
-
Good Will Hunting[1997][DvDrip][Eng][MustWatch][BandwidthWasters in 'Video - Movies'
699.67 MB
-
-
Good.Will.Hunting.1997.720p.HDTV.x264-HD in 'english-translated anime'
4.24 GB
-
-
Good.Will.Hunting.1997.BRRiP.720p.x264~PlutO~ in 'highres - movies'
756.14 MB
-
-
Good Will Hunting 1997 BRrip 720p x264 [Herakler-Vnsharing.net] in 'highres - movies'
695.41 MB
-
-
Good Will Hunting 1997 720p BluRay DD5.1 x264-EbP in 'Movies'
8.62 GB
-
-
Good.Will.Hunting.1997.1080p.BluRay.x264.anoXmous in 'Movies'
2.07 GB
-
-
Good Will Hunting 1997 720p BluRay DTS x264-SilverTorrentHD in 'Movies'
4.42 GB
-
-

Share