Hercules and the Circle of Fire torrent download locations



Torrent contents

Size: 702.04 MB

Hash: 92EEF56638544CE108E696C44740C88F2BF63035

Torrent description(s)

  • torrentfunk
Hercules and the Circle of Fire

image

Info
Name: Hercules: The Legendary Journeys - Hercules and the Circle of Fire
Year: 1994
Duration: mins
Votes: 648
Country: USA, New Zealand
Genres: Fantasy, Action, Adventure
Director: Doug Lefler
He wrote: Christian Williams Barry Pullman Andrew Dettmann Daniel Truly
Manufacturer: David Eick Eric Gruendemann Bernadette Joyce Sam Raimi Robert G. Tapert Christian Williams
Music: Joseph LoDuca

Plot
Hercules and Deianeira go in search of fire to save the world from cold. All the world's fire are fast going out..

Cast

Kevin Sorbo Hercules
Anthony Quinn Zeus
Tawny Kitaen Deianeira
Kevin Atkinson Cheiron
Stephanie Barrett Phaedra
Christopher Brougham Warlock / Janus
Nell Weatherly Hag / Girl
Simone Kessell Girl / Hag
Alexander Gandar Telemon
Joseph Greer
image


General
Complete name : Hercules and the Circle of Fire.mp4
Format : MPEG-4
Format profile : Base Media / Version 2
Codec ID : mp42
File size : 702 MiB
Duration : 1h 30mn
Overall bit rate : 1 083 Kbps
Encoded date : UTC 2011-10-07 08:01:52
Tagged date : UTC 2011-10-07 09:56:47

Video
ID : 1
Format : AVC
Format/Info : Advanced Video Codec
Format profile : [email protected]
Format settings, CABAC : Yes
Format settings, ReFrames : 2 frames
Codec ID : avc1
Codec ID/Info : Advanced Video Coding
Duration : 1h 30mn
Bit rate mode : Variable
Bit rate : 969 Kbps
Maximum bit rate : 3 532 Kbps
Width : 640 pixels
Height : 432 pixels
Display aspect ratio : 3:2
Original display aspect ratio : 4:3
Frame rate mode : Constant
Frame rate : 29.970 fps
Standard : NTSC
Color space : YUV
Chroma subsampling : 4:2:0
Bit depth : 8 bits
Scan type : Progressive
Bits/(Pixel*Frame) : 0.117
Stream size : 628 MiB (89%)
Language : English
Encoded date : UTC 2011-10-07 08:01:52
Tagged date : UTC 2011-10-07 09:56:47

Audio
ID : 2
Format : AAC
Format/Info : Advanced Audio Codec
Format profile : LC
Codec ID : 40
Duration : 1h 30mn
Bit rate mode : Variable
Bit rate : 110 Kbps
Maximum bit rate : 120 Kbps
Channel(s) : 2 channels
Channel positions : Front: L R
Sampling rate : 48.0 KHz
Compression mode : Lossy
Stream size : 71.2 MiB (10%)
Title : English
Language : English
Encoded date : UTC 2011-10-07 08:01:52
Tagged date : UTC 2011-10-07 09:56:47

Menu
00:00:00.000 : Chapter 1
00:19:45.100 : Chapter 2
00:34:46.833 : Chapter 3
00:45:07.366 : Chapter 4
00:57:21.566 : Chapter 5
01:06:11.500 : Chapter 6
01:15:40.933 : Chapter 7
01:30:31.233 : Chapter 8



Screen Shots

image
image
image
image

Keep seeding After Download enjoy !

thanks for downloading
 Hercules and the Circle of FireInfo
Name: Hercules: The Legendary Journeys - Hercules and the Circle of Fire
Year: 1994
Duration: mins
Votes: 648
Country: USA, New Zealand
Genres: Fantasy, Action, Adventure
Director: Doug Lefler
He wrote: Christian Williams Barry Pullman Andrew Dettmann Daniel Truly 
Manufacturer: David Eick Eric Gruendemann Bernadette Joyce Sam Raimi Robert G. Tapert Christian Williams 
Music: Joseph LoDucaPlot
Hercules and Deianeira go in search of fire to save the world from cold. All the world's fire are fast going out..Cast
Kevin Sorbo Hercules 
Anthony Quinn Zeus 
Tawny Kitaen Deianeira 
Kevin Atkinson Cheiron 
Stephanie Barrett Phaedra 
Christopher Brougham Warlock / Janus 
Nell Weatherly Hag / Girl 
Simone Kessell Girl / Hag 
Alexander Gandar Telemon 
Joseph GreerGeneral
Complete name                    : Hercules and the Circle of Fire.mp4
Format                           : MPEG-4
Format profile                   : Base Media / Version 2
Codec ID                         : mp42
File size                        : 702 MiB
Duration                         : 1h 30mn
Overall bit rate                 : 1 083 Kbps
Encoded date                     : UTC 2011-10-07 08:01:52
Tagged date                      : UTC 2011-10-07 09:56:47
Video
ID                               : 1
Format                           : AVC
Format/Info                      : Advanced Video Codec
Format profile                   : [email protected]
Format settings, CABAC           : Yes
Format settings, ReFrames        : 2 frames
Codec ID                         : avc1
Codec ID/Info                    : Advanced Video Coding
Duration                         : 1h 30mn
Bit rate mode                    : Variable
Bit rate                         : 969 Kbps
Maximum bit rate                 : 3 532 Kbps
Width                            : 640 pixels
Height                           : 432 pixels
Display aspect ratio             : 3:2
Original display aspect ratio    : 4:3
Frame rate mode                  : Constant
Frame rate                       : 29.970 fps
Standard                         : NTSC
Color space                      : YUV
Chroma subsampling               : 4:2:0
Bit depth                        : 8 bits
Scan type                        : Progressive
Bits/(Pixel*Frame)               : 0.117
Stream size                      : 628 MiB (89%)
Language                         : English
Encoded date                     : UTC 2011-10-07 08:01:52
Tagged date                      : UTC 2011-10-07 09:56:47
Audio
ID                               : 2
Format                           : AAC
Format/Info                      : Advanced Audio Codec
Format profile                   : LC
Codec ID                         : 40
Duration                         : 1h 30mn
Bit rate mode                    : Variable
Bit rate                         : 110 Kbps
Maximum bit rate                 : 120 Kbps
Channel(s)                       : 2 channels
Channel positions                : Front: L R
Sampling rate                    : 48.0 KHz
Compression mode                 : Lossy
Stream size                      : 71.2 MiB (10%)
Title                            : English
Language                         : English
Encoded date                     : UTC 2011-10-07 08:01:52
Tagged date                      : UTC 2011-10-07 09:56:47
Menu
00:00:00.000                     : Chapter 1
00:19:45.100                     : Chapter 2
00:34:46.833                     : Chapter 3
00:45:07.366                     : Chapter 4
00:57:21.566                     : Chapter 5
01:06:11.500                     : Chapter 6
01:15:40.933                     : Chapter 7
01:30:31.233                     : Chapter 8Screen Shots
Keep seeding After Download enjoy !
thanks for downlo

Related torrents

Title
Size
Seeds
Peers

Share