New Game! Season 1 720p (EngDub) Download torrent download locations



Torrent contents

Size: 2.05 GB

Hash: C03F5DE7692427840FF53F12AC1F08587E4D9E45

Torrent description(s)

  • thepiratebay
New Game! Season 1 Complete 720p (EngDub) Download 
After graduating high school, Suzukaze Aoba joins Eagle Jump, the game company that developed Fairies Story, the game she obsessed over as a kid. On her first day as a working member of society, Aoba heads to work swaying in a packed, morning rush hour train. She manages to get to the office building all right but hesitates, wondering if it was really okay for her to take that last step and go inside. That's when a senior member of staff, Toyama Rin, shows up at work and safely leads Aoba inside the offices of Eagle Jump.

..::File Specs::.. 
General 

Format                                   : Matroska 
Format version                           : Version 4 / Version 2 
Duration                                 : 23 min 50 s 
Overall bit rate                         : 1 537 kb/s 

Video 
ID                                       : 1 
Format                                   : AVC 
Format/Info                              : Advanced Video Codec 
Format profile                           : [email protected] 
Format settings, CABAC                   : Yes 
Format settings, RefFrames               : 3 frames 
Codec ID                                 : V_MPEG4/ISO/AVC 
Duration                                 : 23 min 50 s 
Bit rate                                 : 1 280 kb/s 
Width                                    : 1 280 pixels 
Height                                   : 720 pixels 
Display aspect ratio                     : 16:9 
Frame rate mode                          : Constant 
Frame rate                               : 23.976 (24000/1001) FPS 
Color space                              : YUV 
Chroma subsampling                       : 4:2:0 
Bit depth                                : 8 bits 
Scan type                                : Progressive 
Bits/(Pixel*Frame)                       : 0.058 
Stream size                              : 218 MiB (83%) 
Writing library                          : x264 core 148 r2643 5c65704 
Default                                  : Yes 
Forced                                   : No 

Audio 
ID                                       : 2 
Format                                   : AAC 
Format/Info                              : Advanced Audio Codec 
Format profile                           : LC 
Codec ID                                 : A_AAC 
Duration                                 : 23 min 50 s 
Bit rate                                 : 253 kb/s 
Channel(s)                               : 2 channels 
Channel positions                        : Front: L R 
Sampling rate                            : 48.0 kHz 
Frame rate                               : 46.875 FPS (1024 SPF) 
Compression mode                         : Lossy 
Stream size                              : 43.2 MiB (16%) 
Language                                 : English 

..::ScreenShots::.. 
 
http://i.imgur.com/1kjBztP.png  
http://i.imgur.com/38edt0X.jpg 

================================================================ 
Seed Seed Seed Seed Seed Seed Seed Seed Seed Seed Seed Seed Seed 
To direct download or Watch Online this file, Visit. 
www.DigiMaza.com
Seed Seed Seed Seed Seed Seed Seed Seed Seed Seed Seed Seed Seed 
================================================================

Related torrents

Share