Rogue One (2016) BDRip XviD MAX torrent download locations



Torrent contents

Size: 1.37 GB

Hash: 25C684881C8691B858EDA3E19E88969D891D09CF

Torrent description(s)

  • thepiratebay
 http://i.imgur.com/rUjWJAV.jpg

Screens:
 
http://i.imgur.com/f7SZSVZ.jpg 
http://i.imgur.com/hHxuMGm.jpg 
http://i.imgur.com/ZEnHMEb.jpg 
http://i.imgur.com/yU1EMyO.jpg

ScreenCaps:
 
http://i.imgur.com/tQzyzpv.jpg

Rogue One (2016) BDRip XviD-MAXSPEED
Format                                   : AVI
Format/Info                              : Audio Video Interleave
File size                                : 1.37 GiB
Duration                                 : 2h 13mn
Overall bit rate                         : 1 461 Kbps
Writing application                      : VirtualDubMod 1.5.10.2 (build 2542/release)
Writing library                          : VirtualDubMod build 2542/release
Original source form                     : MAX TORRENTZ
Copyright                                : SIGISMUNT

Video
ID                                       : 0
Format                                   : MPEG-4 Visual
Format profile                           : Advanced [email protected]
Format settings, BVOP                    : 2
Format settings, QPel                    : No
Format settings, GMC                     : No warppoints
Format settings, Matrix                  : Default (MPEG)
Codec ID                                 : XVID
Codec ID/Hint                            : XviD
Duration                                 : 2h 13mn
Bit rate                                 : 1 068 Kbps
Width                                    : 720 pixels
Height                                   : 304 pixels
Display aspect ratio                     : 2.35:1
Frame rate                               : 23.976 fps
Color space                              : YUV
Chroma subsampling                       : 4:2:0
Bit depth                                : 8 bits
Scan type                                : Progressive
Compression mode                         : Lossy
Bits/(Pixel*Frame)                       : 0.203
Stream size                              : 1 023 MiB (73%)
Writing library                          : XviD 1.2.1 (UTC 2008-12-04)

Audio
ID                                       : 1
Format                                   : AC-3
Format/Info                              : Audio Coding 3
Mode extension                           : CM (complete main)
Format settings, Endianness              : Big
Codec ID                                 : 2000
Duration                                 : 2h 13mn
Bit rate mode                            : Constant
Bit rate                                 : 384 Kbps
Channel(s)                               : 6 channels
Channel positions                        : Front: L C R, Side: L R, LFE
Sampling rate                            : 48.0 KHz
Bit depth                                : 16 bits
Compression mode                         : Lossy
Stream size                              : 368 MiB (26%)
Alignment                                : Split accross interleaves
Interleave, duration                     : 42 ms (1.00 video frame)
Interleave, preload duration             : 500 ms

Source: Bluray (clean encode/source, perfect a/v/sync quality,sample included)
This torrent is not seedbox supported,please seed it to the MAX

Related torrents

Title
Size
Seeds
Peers

Share