Rogue One A Star Wars Story 2016 x264 HDTS (Deflickered) DDR torrent download locations



Torrent contents

Size: 1.38 GB

Hash: BA119ED6890F184FE5D9F270923951E2516965F7

Torrent description(s)

  • thepiratebay
  • Demonoid
x264 HDTS Rip

Foreground Video noise removed and REALLY deflickered to 100 %

New clean English MP3 2.0 Audio

Usual DDR Avisynth enhancements for better clarity and details
Plz Check included SAMPLE

 
http://extraimage.net/image/2jOu 
http://extraimage.net/image/2jOV 
http://extraimage.net/image/2jO6 
http://extraimage.net/image/2jOx 
http://extraimage.net/image/2jOt 
http://extraimage.net/image/2jOo 
http://extraimage.net/image/2jOk 
http://extraimage.net/image/2jOH 
http://extraimage.net/image/2jOF 
http://extraimage.net/image/2jOD 
http://extraimage.net/image/2jO5 
http://extraimage.net/image/2jOg 
http://extraimage.net/image/2jOX 
http://extraimage.net/image/2jOP

Specs:
Source: V HDTS @ Hub
A CPG Line
Format : Matroska
File size : 1.36 GiB
Duration : 2 h 5 min
Overall bit rate : 1 550 kb/s
Encoded date : UTC 2016-12-17 23:28:30

Video
Format : AVC
Format/Info : Advanced Video Codec
Format profile : [email protected]
Format settings, CABAC : Yes
Format settings, ReFrames : 16 frames
Codec ID : V_MPEG4/ISO/AVC
Duration : 2 h 5 min
Bit rate : 1 356 kb/s
Width : 720 pixels
Height : 304 pixels
Display aspect ratio : 2.35:1
Frame rate mode : Constant
Frame rate : 29.970 (30000/1001) FPS
Color space : YUV
Chroma subsampling : 4:2:0
Bit depth : 8 bits
Scan type : Progressive
Bits/(Pixel*Frame) : 0.207
Stream size : 1.19 GiB (87%)
Writing library : x264 core 148 r2744 b97ae06
Language : English
Default : Yes
Forced : No
Color range : Limited
Color primaries : BT.601 NTSC
Transfer characteristics : BT.470 System B, BT.470 System G
Matrix coefficients : BT.601



AAudio #1
Format : MPEG Audio
Format version : Version 1
Format profile : Layer 3
Codec ID : A_MPEG/L3
Codec ID/Hint : MP3
Duration : 2 h 5 min
Bit rate mode : Constant
Bit rate : 192 kb/s
Channel(s) : 2 channels
Sampling rate : 44.1 kHz
Frame rate : 38.281 FPS (1152 spf)
Compression mode : Lossy
Delay relative to video : 11 ms
Stream size : 172 MiB (12%)
Language : Hindi
Default : Yes
Forced : No




x264 HDTS Rip

Foreground Video noise removed and REALLY deflickered to 100 %

New clean English MP3 2.0 Audio

Usual DDR Avisynth enhancements for better clarity and details
Plz Check included SAMPLE




[B]Specs:

Source: V HDTS @ Hub
A CPG Line
Format : Matroska
File size : 1.36 GiB
Duration : 2 h 5 min
Overall bit rate : 1 550 kb/s
Encoded date : UTC 2016-12-17 23:28:30

Video
Format : AVC
Format/Info : Advanced Video Codec
Format profile : [email protected]
Format settings, CABAC : Yes
Format settings, ReFrames : 16 frames
Codec ID : V_MPEG4/ISO/AVC
Duration : 2 h 5 min
Bit rate : 1 356 kb/s
Width : 720 pixels
Height : 304 pixels
Display aspect ratio : 2.35:1
Frame rate mode : Constant
Frame rate : 29.970 (30000/1001) FPS
Color space : YUV
Chroma subsampling : 4:2:0
Bit depth : 8 bits
Scan type : Progressive
Bits/(Pixel*Frame) : 0.207
Stream size : 1.19 GiB (87%)
Writing library : x264 core 148 r2744 b97ae06
Language : English
Default : Yes
Forced : No
Color range : Limited
Color primaries : BT.601 NTSC
Transfer characteristics : BT.470 System B, BT.470 System G
Matrix coefficients : BT.601



AAudio #1
Format : MPEG Audio
Format version : Version 1
Format profile : Layer 3
Codec ID : A_MPEG/L3
Codec ID/Hint : MP3
Duration : 2 h 5 min
Bit rate mode : Constant
Bit rate : 192 kb/s
Channel(s) : 2 channels
Sampling rate : 44.1 kHz
Frame rate : 38.281 FPS (1152 spf)
Compression mode : Lossy
Delay relative to video : 11 ms
Stream size : 172 MiB (12%)
Language : Hindi
Default : Yes
Forced : No


SAMPLE Included

A DDR Exclusive Encode[/b]

Related torrents

Title
Size
Seeds
Peers

Share