Rogue One a Star Wars Story (2016).720p.H264.Italian.English.5.1.sub.ita.eng.iCV torrent download locations



Torrent contents

Size: 3.65 GB

Hash: A1A143B704BDE4B2846CE16D66DA096F833FC38F

Torrent description(s)

  • isohunt.to
  • Demonoid
Rogue One - A Star Wars Story (2016).720p.H264.Italian.English.5.1.sub.ita.eng.iCV-MIRCrew

[center]

[color=red][b][img]image[/img]
[u]NO FOUND ONLY ORIGINAL RELEASE[/u]

[img]image[/img]

My release is always in double track audio italian and Original audio
for select it use VLC or dvd player home
not use wmp 

Rogue One a Star Wars Story (2016) Audio 5.1

[img]http://extraimage.net/images/2017/04/09/d0afdcd9195f947d5bf124e31008af87.png[/img]

[URL=http://www.imdb.com/title/tt3748528/][IMG]image[/img][/URL] 

[img]image[/img]

Lingua originale 	inglese
Paese di produzione 	Stati Uniti d'America
Anno 	2016
Durata 	133 minuti
Rapporto 	2.35:1
Genere 	fantascienza, azione
Regia 	Gareth Edwards
Soggetto 	John Knoll, Gary Whitta
Sceneggiatura 	Chris Weitz, Tony Gilroy
Produttore 	Kathleen Kennedy, Allison Shearmur, Simon Emanuel
Produttore esecutivo 	John Knoll, Jason D. McGatlin
Casa di produzione 	Lucasfilm
Distribuzione (Italia) 	Walt Disney Studios Motion Pictures
Fotografia 	Greig Fraser
Montaggio 	Jabez Olssen, John Gilroy, Colin Goudie
Effetti speciali 	Neil Corbould, John Knoll
Musiche 	Michael Giacchino
Scenografia 	Doug Chiang, Neil Lamont

[img]image[/img]


    Felicity Jones: Jyn Erso
    Diego Luna: Cassian Andor
    Ben Mendelsohn: Orson Krennic
    Donnie Yen: Chirrut Îmwe
    Mads Mikkelsen: Galen Erso
    Alan Tudyk: K-2SO
    Riz Ahmed: Bodhi Rook
    Jiang Wen: Baze Malbus
    Forest Whitaker: Saw Gerrera


[img]image[/img]

Lo scienziato Galen Erso, dopo aver lavorato per anni per l'Impero Galattico, si è ritirato sul pianeta Lah'mu, dove vive insieme alla moglie Lyra e alla figlia Jyn Erso. Erso viene raggiunto dal Direttore Imperiale Orson Krennic, che uccide Lyra e costringe lo scienziato a completare la progettazione della Morte Nera, una grande stazione spaziale capace di distruggere interi pianeti..............

[img]image[/img]

The Rebel Alliance makes a risky move to steal the plans for the Death Star, setting up the epic saga to follow. 

[img]image[/img]

[url=http://extraimage.net/image/2AUB][img]http://extraimage.net/images/2017/04/09/ed71876103a90f33cde143f1a26d0c0e.th.png[/img][/url] [url=http://extraimage.net/image/2AUC][img]http://extraimage.net/images/2017/04/09/a1b59c51d3abfa19309fd853a2b37dcd.th.png[/img][/url] [url=http://extraimage.net/image/2AUY][img]http://extraimage.net/images/2017/04/09/b683860b5508cef236f22cdded0d294b.th.png[/img][/url] [url=http://extraimage.net/image/2AUp][img]http://extraimage.net/images/2017/04/09/7a5340c9b84a0a1b86595984b6616b09.th.png[/img][/url]

[img]image[/img]


[spoiler]
General
Unique ID                                : 131446593262021633638918178523619138596 (0x62E3B168C847BC304F38328D2E8E1C24)
Complete name                            : Rogue One A Star Wars Story (2016).720p.H264.ita.eng.sub.ita.eng.iCV-MIRCrew.mkv
Format                                   : Matroska
Format version                           : Version 2
File size                                : 3.65 GiB
Duration                                 : 2h 13mn
Overall bit rate                         : 3 901 Kbps
Movie name                               : www.icv-crew.org
Encoded date                             : UTC 2017-04-07 15:50:37
Writing application                      : Lavf54.63.100
Writing library                          : Lavf54.63.100
COPYRIGHT                                : robbyrs

Video
ID                                       : 1
Format                                   : AVC
Format/Info                              : Advanced Video Codec
Format profile                           : [email protected]
Format settings, CABAC                   : Yes
Format settings, ReFrames                : 2 frames
Codec ID                                 : V_MPEG4/ISO/AVC
Duration                                 : 2h 13mn
Bit rate                                 : 3 000 Kbps
Width                                    : 1 728 pixels
Height                                   : 720 pixels
Display aspect ratio                     : 2.40:1
Frame rate mode                          : Variable
Frame rate                               : 23.976 fps
Color space                              : YUV
Chroma subsampling                       : 4:2:0
Bit depth                                : 8 bits
Scan type                                : Progressive
Bits/(Pixel*Frame)                       : 0.101
Stream size                              : 2.74 GiB (75%)
Writing library                          : x264 core 130 r2273
Encoding settings                        : cabac=1 / ref=2 / deblock=1:0:0 / analyse=0x1:0x131 / me=hex / subme=7 / psy=1 / psy_rd=1.00:0.00 / mixed_ref=0 / me_range=16 / chroma_me=1 / trellis=1 / 8x8dct=0 / cqm=0 / deadzone=21,11 / fast_pskip=1 / chroma_qp_offset=-2 / threads=12 / lookahead_threads=2 / sliced_threads=0 / nr=0 / decimate=1 / interlaced=0 / bluray_compat=0 / constrained_intra=0 / bframes=3 / b_pyramid=0 / b_adapt=1 / b_bias=0 / direct=3 / weightb=1 / open_gop=0 / weightp=2 / keyint=230 / keyint_min=23 / scenecut=40 / intra_refresh=0 / rc_lookahead=40 / rc=2pass / mbtree=1 / bitrate=3000 / ratetol=1.0 / qcomp=0.60 / qpmin=10 / qpmax=69 / qpstep=4 / cplxblur=20.0 / qblur=0.5 / vbv_maxrate=24000 / vbv_bufsize=24000 / nal_hrd=none / ip_ratio=1.40 / aq=1:1.00
Language                                 : English
Default                                  : Yes
Forced                                   : No
DURATION                                 : 02:13:57.280000000
NUMBER_OF_FRAMES                         : 192702
NUMBER_OF_BYTES                          : 9800263639
_STATISTICS_WRITING_APP                  : mkvmerge v8.7.0 ('All of the above') 64bit
_STATISTICS_WRITING_DATE_UTC             : 2017-04-07 09:53:06
_STATISTICS_TAGS                         : BPS DURATION NUMBER_OF_FRAMES NUMBER_OF_BYTES

Audio #1
ID                                       : 2
Format                                   : AC-3
Format/Info                              : Audio Coding 3
Mode extension                           : CM (complete main)
Codec ID                                 : A_AC3
Duration                                 : 2h 13mn
Bit rate mode                            : Constant
Bit rate                                 : 448 Kbps
Channel(s)                               : 6 channels
Channel positions                        : Front: L C R, Side: L R, LFE
Sampling rate                            : 48.0 KHz
Bit depth                                : 16 bits
Compression mode                         : Lossy
Delay relative to video                  : 1mn 5s
Stream size                              : 429 MiB (11%)
Title                                    : AC3 ITA
Language                                 : Italian
Default                                  : No
Forced                                   : No
DURATION                                 : 02:13:57.312000000
NUMBER_OF_FRAMES                         : 251166
NUMBER_OF_BYTES                          : 642984960
_STATISTICS_WRITING_APP                  : mkvmerge v8.7.0 ('All of the above') 64bit
_STATISTICS_WRITING_DATE_UTC             : 2017-04-07 09:53:06
_STATISTICS_TAGS                         : BPS DURATION NUMBER_OF_FRAMES NUMBER_OF_BYTES

Audio #2
ID                                       : 3
Format                                   : AC-3
Format/Info                              : Audio Coding 3
Mode extension                           : CM (complete main)
Codec ID                                 : A_AC3
Duration                                 : 2h 13mn
Bit rate mode                            : Constant
Bit rate                                 : 448 Kbps
Channel(s)                               : 6 channels
Channel positions                        : Front: L C R, Side: L R, LFE
Sampling rate                            : 48.0 KHz
Bit depth                                : 16 bits
Compression mode                         : Lossy
Delay relative to video                  : 1mn 5s
Stream size                              : 429 MiB (11%)
Title                                    : AC3 ENG
Language                                 : English
Default                                  : No
Forced                                   : No
DURATION                                 : 02:13:57.280000000
NUMBER_OF_FRAMES                         : 251165
NUMBER_OF_BYTES                          : 642982400
_STATISTICS_WRITING_APP                  : mkvmerge v8.7.0 ('All of the above') 64bit
_STATISTICS_WRITING_DATE_UTC             : 2017-04-07 09:53:06
_STATISTICS_TAGS                         : BPS DURATION NUMBER_OF_FRAMES NUMBER_OF_BYTES

Text #1
ID                                       : 4
Format                                   : ASS
Codec ID                                 : S_TEXT/ASS
Codec ID/Info                            : Advanced Sub Station Alpha
Compression mode                         : Lossless
Title                                    : FORCED
Language                                 : Italian
Default                                  : Yes
Forced                                   : No
DURATION                                 : 01:23:25.881000000
NUMBER_OF_FRAMES                         : 16
NUMBER_OF_BYTES                          : 470
_STATISTICS_WRITING_APP                  : mkvmerge v8.7.0 ('All of the above') 64bit
_STATISTICS_WRITING_DATE_UTC             : 2017-04-07 09:53:06
_STATISTICS_TAGS                         : BPS DURATION NUMBER_OF_FRAMES NUMBER_OF_BYTES

Text #2
ID                                       : 5
Format                                   : ASS
Codec ID                                 : S_TEXT/ASS
Codec ID/Info                            : Advanced Sub Station Alpha
Compression mode                         : Lossless
Title                                    : REGULAR
Language                                 : Italian
Default                                  : No
Forced                                   : No
DURATION                                 : 02:05:23.982000000
NUMBER_OF_FRAMES                         : 1502
NUMBER_OF_BYTES                          : 44129
_STATISTICS_WRITING_APP                  : mkvmerge v8.7.0 ('All of the above') 64bit
_STATISTICS_WRITING_DATE_UTC             : 2017-04-07 09:53:06
_STATISTICS_TAGS                         : BPS DURATION NUMBER_OF_FRAMES NUMBER_OF_BYTES

Text #3
ID                                       : 6
Format                                   : ASS
Codec ID                                 : S_TEXT/ASS
Codec ID/Info                            : Advanced Sub Station Alpha
Compression mode                         : Lossless
Title                                    : FORCED
Language                                 : English
Default                                  : No
Forced                                   : No
DURATION                                 : 00:25:37.579000000
NUMBER_OF_FRAMES                         : 9
NUMBER_OF_BYTES                          : 227
_STATISTICS_WRITING_APP                  : mkvmerge v8.7.0 ('All of the above') 64bit
_STATISTICS_WRITING_DATE_UTC             : 2017-04-07 09:53:06
_STATISTICS_TAGS                         : BPS DURATION NUMBER_OF_FRAMES NUMBER_OF_BYTES

Text #4
ID                                       : 7
Format                                   : ASS
Codec ID                                 : S_TEXT/ASS
Codec ID/Info                            : Advanced Sub Station Alpha
Compression mode                         : Lossless
Title                                    : REGULAR
Language                                 : English
Default                                  : No
Forced                                   : No
DURATION                                 : 02:05:27.394000000
NUMBER_OF_FRAMES                         : 1830
NUMBER_OF_BYTES                          : 51608
_STATISTICS_WRITING_APP                  : mkvmerge v8.7.0 ('All of the above') 64bit
_STATISTICS_WRITING_DATE_UTC             : 2017-04-07 09:53:06
_STATISTICS_TAGS                         : BPS DURATION NUMBER_OF_FRAMES NUMBER_OF_BYTES

Menu
00:00:00.000                             : :"He's Come For Us"
00:02:34.654                             : :Unfinished Business
00:07:46.466                             : :Jyn In Prison
00:08:42.814                             : :Ring Of Kafrene
00:11:04.622                             : :An Urgent Message
00:12:21.199                             : :Wobani Prison Break
00:13:41.154                             : :Rebel Interrogation
00:17:19.914                             : :Mission Departure
00:20:09.542                             : :Saw Gerrera
00:21:54.772                             : :Krennic And Tarkin
00:23:47.092                             : :Jyn's Dream
00:24:31.386                             : :Scouting Jedha City
00:26:53.445                             : :Bor Gullet
00:27:46.623                             : :Guardians Of The Whills
00:30:37.294                             : :Holy City Ambush
00:33:53.406                             : :"Let Them Pass"
00:37:11.271                             : :Saw's Catacombs
00:42:30.089                             : :Galen's Message
00:47:16.125                             : :Jedha Escape
00:51:04.144                             : :Tarkin Commands
00:52:23.724                             : :Race To Eadu
00:55:53.266                             : :Eadu Crash
00:59:48.251                             : :Scouting Eadu
01:02:07.807                             : :Krennic And Galen
01:05:25.505                             : :Attack On Eadu
01:10:24.095                             : :Eadu Aftermath
01:12:49.532                             : :Mustafar
01:16:28.459                             : :Jyn Before The Council
01:19:04.323                             : :"May The Force Be With Us"
01:21:55.160                             : :Rogue One Launches
01:23:25.667                             : :Scarif Gate
01:25:58.987                             : :10 Men Like 100
01:27:34.958                             : :Imperial Inspection
01:29:57.308                             : :Ground Forces
01:31:53.841                             : :The Battle Begins
01:34:18.736                             : :Scrambling The Rebel Fleet
01:36:07.512                             : :Sowing Confusion
01:37:48.237                             : :Rebel Reinforcements
01:40:27.605                             : :Beach Battle
01:42:44.074                             : :Master Switch
01:45:26.779                             : :Stardust
01:47:55.010                             : :Data Vault
01:50:31.416                             : :Sacrifices
01:53:28.885                             : :"We Have The Plans"
01:55:46.272                             : :Final Confrontation
01:59:23.448                             : :Transmission Received
02:01:11.347                             : :Fire When Ready
02:03:15.596                             : :Hope
02:05:42.118                             : :End Credits



[/spoiler]

[/b][/center][/color]
Rogue One - A Star Wars Story (2016).720p.H264.Italian.English.5.1.sub.ita.eng.iCV-MIRCrew




NO FOUND ONLY ORIGINAL RELEASE



My release is always in double track audio italian and Original audio
for select it use VLC or dvd player home
not use wmp

Rogue One a Star Wars Story (2016) Audio 5.1







Lingua originale inglese
Paese di produzione Stati Uniti d'America
Anno 2016
Durata 133 minuti
Rapporto 2.35:1
Genere fantascienza, azione
Regia Gareth Edwards
Soggetto John Knoll, Gary Whitta
Sceneggiatura Chris Weitz, Tony Gilroy
Produttore Kathleen Kennedy, Allison Shearmur, Simon Emanuel
Produttore esecutivo John Knoll, Jason D. McGatlin
Casa di produzione Lucasfilm
Distribuzione (Italia) Walt Disney Studios Motion Pictures
Fotografia Greig Fraser
Montaggio Jabez Olssen, John Gilroy, Colin Goudie
Effetti speciali Neil Corbould, John Knoll
Musiche Michael Giacchino
Scenografia Doug Chiang, Neil Lamont




Felicity Jones: Jyn Erso
Diego Luna: Cassian Andor
Ben Mendelsohn: Orson Krennic
Donnie Yen: Chirrut Îmwe
Mads Mikkelsen: Galen Erso
Alan Tudyk: K-2SO
Riz Ahmed: Bodhi Rook
Jiang Wen: Baze Malbus
Forest Whitaker: Saw Gerrera




Lo scienziato Galen Erso, dopo aver lavorato per anni per l'Impero Galattico, si è ritirato sul pianeta Lah'mu, dove vive insieme alla moglie Lyra e alla figlia Jyn Erso. Erso viene raggiunto dal Direttore Imperiale Orson Krennic, che uccide Lyra e costringe lo scienziato a completare la progettazione della Morte Nera, una grande stazione spaziale capace di distruggere interi pianeti..............



The Rebel Alliance makes a risky move to steal the plans for the Death Star, setting up the epic saga to follow.








[spoiler]
General
Unique ID : 131446593262021633638918178523619138596 (0x62E3B168C847BC304F38328D2E8E1C24)
Complete name : Rogue One A Star Wars Story (2016).720p.H264.ita.eng.sub.ita.eng.iCV-MIRCrew.mkv
Format : Matroska
Format version : Version 2
File size : 3.65 GiB
Duration : 2h 13mn
Overall bit rate : 3 901 Kbps
Movie name : www.icv-crew.org
Encoded date : UTC 2017-04-07 15:50:37
Writing application : Lavf54.63.100
Writing library : Lavf54.63.100
COPYRIGHT : robbyrs

Video
ID : 1
Format : AVC
Format/Info : Advanced Video Codec
Format profile : [email protected]
Format settings, CABAC : Yes
Format settings, ReFrames : 2 frames
Codec ID : V_MPEG4/ISO/AVC
Duration : 2h 13mn
Bit rate : 3 000 Kbps
Width : 1 728 pixels
Height : 720 pixels
Display aspect ratio : 2.40:1
Frame rate mode : Variable
Frame rate : 23.976 fps
Color space : YUV
Chroma subsampling : 4:2:0
Bit depth : 8 bits
Scan type : Progressive
Bits/(Pixel*Frame) : 0.101
Stream size : 2.74 GiB (75%)
Writing library : x264 core 130 r2273
Encoding settings : cabac=1 / ref=2 / deblock=1:0:0 / analyse=0x1:0x131 / me=hex / subme=7 / psy=1 / psy_rd=1.00:0.00 / mixed_ref=0 / me_range=16 / chroma_me=1 / trellis=1 / 8x8dct=0 / cqm=0 / deadzone=21,11 / fast_pskip=1 / chroma_qp_offset=-2 / threads=12 / lookahead_threads=2 / sliced_threads=0 / nr=0 / decimate=1 / interlaced=0 / bluray_compat=0 / constrained_intra=0 / bframes=3 / b_pyramid=0 / b_adapt=1 / b_bias=0 / direct=3 / weightb=1 / open_gop=0 / weightp=2 / keyint=230 / keyint_min=23 / scenecut=40 / intra_refresh=0 / rc_lookahead=40 / rc=2pass / mbtree=1 / bitrate=3000 / ratetol=1.0 / qcomp=0.60 / qpmin=10 / qpmax=69 / qpstep=4 / cplxblur=20.0 / qblur=0.5 / vbv_maxrate=24000 / vbv_bufsize=24000 / nal_hrd=none / ip_ratio=1.40 / aq=1:1.00
Language : English
Default : Yes
Forced : No
DURATION : 02:13:57.280000000
NUMBER_OF_FRAMES : 192702
NUMBER_OF_BYTES : 9800263639
_STATISTICS_WRITING_APP : mkvmerge v8.7.0 ('All of the above') 64bit
_STATISTICS_WRITING_DATE_UTC : 2017-04-07 09:53:06
_STATISTICS_TAGS : BPS DURATION NUMBER_OF_FRAMES NUMBER_OF_BYTES

Audio #1
ID : 2
Format : AC-3
Format/Info : Audio Coding 3
Mode extension : CM (complete main)
Codec ID : A_AC3
Duration : 2h 13mn
Bit rate mode : Constant
Bit rate : 448 Kbps
Channel(s) : 6 channels
Channel positions : Front: L C R, Side: L R, LFE
Sampling rate : 48.0 KHz
Bit depth : 16 bits
Compression mode : Lossy
Delay relative to video : 1mn 5s
Stream size : 429 MiB (11%)
Title : AC3 ITA
Language : Italian
Default : No
Forced : No
DURATION : 02:13:57.312000000
NUMBER_OF_FRAMES : 251166
NUMBER_OF_BYTES : 642984960
_STATISTICS_WRITING_APP : mkvmerge v8.7.0 ('All of the above') 64bit
_STATISTICS_WRITING_DATE_UTC : 2017-04-07 09:53:06
_STATISTICS_TAGS : BPS DURATION NUMBER_OF_FRAMES NUMBER_OF_BYTES

Audio #2
ID : 3
Format : AC-3
Format/Info : Audio Coding 3
Mode extension : CM (complete main)
Codec ID : A_AC3
Duration : 2h 13mn
Bit rate mode : Constant
Bit rate : 448 Kbps
Channel(s) : 6 channels
Channel positions : Front: L C R, Side: L R, LFE
Sampling rate : 48.0 KHz
Bit depth : 16 bits
Compression mode : Lossy
Delay relative to video : 1mn 5s
Stream size : 429 MiB (11%)
Title : AC3 ENG
Language : English
Default : No
Forced : No
DURATION : 02:13:57.280000000
NUMBER_OF_FRAMES : 251165
NUMBER_OF_BYTES : 642982400
_STATISTICS_WRITING_APP : mkvmerge v8.7.0 ('All of the above') 64bit
_STATISTICS_WRITING_DATE_UTC : 2017-04-07 09:53:06
_STATISTICS_TAGS : BPS DURATION NUMBER_OF_FRAMES NUMBER_OF_BYTES

Text #1
ID : 4
Format : ASS
Codec ID : S_TEXT/ASS
Codec ID/Info : Advanced Sub Station Alpha
Compression mode : Lossless
Title : FORCED
Language : Italian
Default : Yes
Forced : No
DURATION : 01:23:25.881000000
NUMBER_OF_FRAMES : 16
NUMBER_OF_BYTES : 470
_STATISTICS_WRITING_APP : mkvmerge v8.7.0 ('All of the above') 64bit
_STATISTICS_WRITING_DATE_UTC : 2017-04-07 09:53:06
_STATISTICS_TAGS : BPS DURATION NUMBER_OF_FRAMES NUMBER_OF_BYTES

Text #2
ID : 5
Format : ASS
Codec ID : S_TEXT/ASS
Codec ID/Info : Advanced Sub Station Alpha
Compression mode : Lossless
Title : REGULAR
Language : Italian
Default : No
Forced : No
DURATION : 02:05:23.982000000
NUMBER_OF_FRAMES : 1502
NUMBER_OF_BYTES : 44129
_STATISTICS_WRITING_APP : mkvmerge v8.7.0 ('All of the above') 64bit
_STATISTICS_WRITING_DATE_UTC : 2017-04-07 09:53:06
_STATISTICS_TAGS : BPS DURATION NUMBER_OF_FRAMES NUMBER_OF_BYTES

Text #3
ID : 6
Format : ASS
Codec ID : S_TEXT/ASS
Codec ID/Info : Advanced Sub Station Alpha
Compression mode : Lossless
Title : FORCED
Language : English
Default : No
Forced : No
DURATION : 00:25:37.579000000
NUMBER_OF_FRAMES : 9
NUMBER_OF_BYTES : 227
_STATISTICS_WRITING_APP : mkvmerge v8.7.0 ('All of the above') 64bit
_STATISTICS_WRITING_DATE_UTC : 2017-04-07 09:53:06
_STATISTICS_TAGS : BPS DURATION NUMBER_OF_FRAMES NUMBER_OF_BYTES

Text #4
ID : 7
Format : ASS
Codec ID : S_TEXT/ASS
Codec ID/Info : Advanced Sub Station Alpha
Compression mode : Lossless
Title : REGULAR
Language : English
Default : No
Forced : No
DURATION : 02:05:27.394000000
NUMBER_OF_FRAMES : 1830
NUMBER_OF_BYTES : 51608
_STATISTICS_WRITING_APP : mkvmerge v8.7.0 ('All of the above') 64bit
_STATISTICS_WRITING_DATE_UTC : 2017-04-07 09:53:06
_STATISTICS_TAGS : BPS DURATION NUMBER_OF_FRAMES NUMBER_OF_BYTES

Menu
00:00:00.000 : :"He's Come For Us"
00:02:34.654 : :Unfinished Business
00:07:46.466 : :Jyn In Prison
00:08:42.814 : :Ring Of Kafrene
00:11:04.622 : :An Urgent Message
00:12:21.199 : :Wobani Prison Break
00:13:41.154 : :Rebel Interrogation
00:17:19.914 : :Mission Departure
00:20:09.542 : :Saw Gerrera
00:21:54.772 : :Krennic And Tarkin
00:23:47.092 : :Jyn's Dream
00:24:31.386 : :Scouting Jedha City
00:26:53.445 : :Bor Gullet
00:27:46.623 : :Guardians Of The Whills
00:30:37.294 : :Holy City Ambush
00:33:53.406 : :"Let Them Pass"
00:37:11.271 : :Saw's Catacombs
00:42:30.089 : :Galen's Message
00:47:16.125 : :Jedha Escape
00:51:04.144 : :Tarkin Commands
00:52:23.724 : :Race To Eadu
00:55:53.266 : :Eadu Crash
00:59:48.251 : :Scouting Eadu
01:02:07.807 : :Krennic And Galen
01:05:25.505 : :Attack On Eadu
01:10:24.095 : :Eadu Aftermath
01:12:49.532 : :Mustafar
01:16:28.459 : :Jyn Before The Council
01:19:04.323 : :"May The Force Be With Us"
01:21:55.160 : :Rogue One Launches
01:23:25.667 : :Scarif Gate
01:25:58.987 : :10 Men Like 100
01:27:34.958 : :Imperial Inspection
01:29:57.308 : :Ground Forces
01:31:53.841 : :The Battle Begins
01:34:18.736 : :Scrambling The Rebel Fleet
01:36:07.512 : :Sowing Confusion
01:37:48.237 : :Rebel Reinforcements
01:40:27.605 : :Beach Battle
01:42:44.074 : :Master Switch
01:45:26.779 : :Stardust
01:47:55.010 : :Data Vault
01:50:31.416 : :Sacrifices
01:53:28.885 : :"We Have The Plans"
01:55:46.272 : :Final Confrontation
01:59:23.448 : :Transmission Received
02:01:11.347 : :Fire When Ready
02:03:15.596 : :Hope
02:05:42.118 : :End Credits



[/spoiler]





Related torrents

Title
Size
Seeds
Peers

Share