Rogue.One.A.Star.Wars.Story.2016.HDTS.800MB.x264.Makintos13.mkv torrent download locations



Torrent contents

Size: 807.69 MB

Hash: C138DC83ADDC4B963B62AABFB6F03D1C83CB7014

Torrent description(s)

  • thepiratebay
Screens:
 
http://imgmak.com/R1j
 
http://imgmak.com/R1w
 
http://imgmak.com/R1J
 
http://imgmak.com/R1W
 
http://imgmak.com/R1d
 
http://imgmak.com/R1s
 
http://imgmak.com/R14
 
http://imgmak.com/R18


Format : Matroska
Format version : Version 2
File size : 808 MiB
Duration : 2 h 5 min
Overall bit rate : 899 kb/s


Video
ID : 1
Format : AVC
Format/Info : Advanced Video Codec
Format profile : [email protected]
Format settings, CABAC : Yes
Format settings, ReFrames : 4 frames
Codec ID : V_MPEG4/ISO/AVC
Duration : 2 h 5 min
Bit rate : 513 kb/s
Width : 720 pixels
Height : 304 pixels
Display aspect ratio : 2.35:1
Frame rate mode : Constant
Frame rate : 29.970 (30000/1001) FPS
Color space : YUV
Chroma subsampling : 4:2:0
Bit depth : 8 bits
Scan type : Progressive
Bits/(Pixel*Frame) : 0.078
Stream size : 461 MiB (57%)
Default : Yes
Forced : No

Audio
ID : 2
Format : AC-3
Format/Info : Audio Coding 3
Mode extension : CM (complete main)
Format settings, Endianness : Big
Codec ID : A_AC3
Duration : 2 h 5 min
Bit rate mode : Constant
Bit rate : 384 kb/s
Channel(s) : 2 channels
Channel positions : Front: L R
Sampling rate : 44.1 kHz
Frame rate : 28.711 FPS (1536 spf)
Bit depth : 16 bits
Compression mode : Lossy
Stream size : 345 MiB (43%)
Language : English
Default : Yes
Forced : No

Source : DDR [Thanks]

Related torrents

Title
Size
Seeds
Peers

Share