Supergirl S02E16 HDTV x264 MVGEE torrent download locations

× Attention!
This torrent is marked as fake/passworded/virus.


Torrent contents

Size: 240.08 MB

Hash: 92BF1E621AE63FDF3A9B02EA99FF0DB020FA3C07

Torrent description(s)

  • thepiratebay
  • isohunt.to
Supergirl.S02E16.HDTV.x264-MVGEE
 
http://www.imdb.com/title/tt4016454/

A diverse team of scientists, soldiers and adventurers unite to explore a mythical, uncharted island in the Pacific, as dangerous as it is beautiful. Cut off from everything they know, the team ventures into the domain of the mighty Kong, igniting the ultimate battle between man and nature. As their mission of discovery becomes one of survival, they must fight to escape a primal Eden in which humanity does not belong.

Year: 2015–
MPA Rating: TV-PG
Genres: Action, Adventure, Drama
Runtime: 43min
Rating: 606
Creators: Ali Adler, Greg Berlanti, Andrew Kreisberg
Stars: Melissa Benoist, Mehcad Brooks, Chyler Leigh

[img]http://i.imgur.com/6vHxNaJ.jpg[/img]

Duration: 00:42:29.31, start: -0.012333, bitrate: 789 kb/s
Stream #0:0(und): Video: h264 (Constrained Baseline) (avc1 / 0x31637661), yuv420p, 720x404 [SAR 1:1 DAR 180:101], 655 kb/s, 25 fps, 25 tbr, 12800 tbn, 50 tbc Stream #0:1(und): Audio: aac (LC) (mp4a / 0x6134706D), 48000 Hz, stereo, fltp, 129 kb/s
Supergirl.S02E16.HDTV.x264-MVGEE

http://www.imdb.com/title/tt4016454/

A diverse team of scientists, soldiers and adventurers unite to explore a mythical, uncharted island in the Pacific, as dangerous as it is beautiful. Cut off from everything they know, the team ventures into the domain of the mighty Kong, igniting the ultimate battle between man and nature. As their mission of discovery becomes one of survival, they must fight to escape a primal Eden in which humanity does not belong.

Year: 2015–
MPA Rating: TV-PG
Genres: Action, Adventure, Drama
Runtime: 43min
Rating: 606
Creators: Ali Adler, Greg Berlanti, Andrew Kreisberg
Stars: Melissa Benoist, Mehcad Brooks, Chyler Leigh

[img]http://i.imgur.com/6vHxNaJ.jpg[/img]

Duration: 00:42:29.31, start: -0.012333, bitrate: 789 kb/s
Stream #0:0(und): Video: h264 (Constrained Baseline) (avc1 / 0x31637661), yuv420p, 720x404 [SAR 1:1 DAR 180:101], 655 kb/s, 25 fps, 25 tbr, 12800 tbn, 50 tbc Stream #0:1(und): Audio: aac (LC) (mp4a / 0x6134706D), 48000 Hz, stereo, fltp, 129 kb/s

Related torrents

Title
Size
Seeds
Peers
Scandal.US.S02E16.HDTV.x264-LOL in 'TV'
257.37 MB
-
-
Scandal US S02E16 HDTV x264 SRIGGA mp4 in 'TV'
1.01 GB
-
-
Scandal.US.S02E16.HDTV.x264-LOL in 'TV'
257.36 MB
-
-
Scandal US S02E16 HDTV x264-LOL[ettv] in 'TV'
257.36 MB
6
3
Scandal US S02E16 HDTV x264-LOL [eztv] in 'TV'
257.36 MB
11
5
Revenge S02E16 HDTV x264 LOL in 'TV'
226.06 MB
-
-
Revenge S02E16 HDTV x264 LOL [VTV] mp4 in 'TV'
226.06 MB
-
-
Revenge S02E16 HDTV x264-LOL [eztv] in 'TV'
226.06 MB
0
1
Revenge.S02E16.HDTV.x264-LOL in 'TV'
226.06 MB
-
-
Revenge S02E16 HDTV x264-LOL[ettv] in 'TV'
226.06 MB
0
1
Revenge S02E16 HDTV x264 LOL in 'TV'
226.06 MB
-
-

Share