Terminator Genisys (2015) Multi 1080p BluRay x264 ATMOS 7 1 DDR torrent download locations

× Attention!
This torrent is marked as fake/passworded/virus.


Torrent contents

Size: 14.01 GB

Hash: FE8CBF886DB24B7752466D077D2F0B4AEBD69D7C

Torrent description(s)

  • thepiratebay
            HQ 1080p Blu-Ray Rip x264

English Dolby ATMOS 7.1 Audio

French AC3 5.1 Audio

English & French subs subs

SCREENSHOTS 
 
http://extraimage.net/image/2ikn 
http://extraimage.net/image/2ikj 
http://extraimage.net/image/2ikT 
http://extraimage.net/image/2ikN 
http://extraimage.net/image/2ik2 
http://extraimage.net/image/2ikw 
http://extraimage.net/image/2ika

SPECS


Source: Blu-ray

Format : Matroska
File size : 13.9 GiB
Duration : 2 h 5 min
Overall bit rate mode : Variable
Overall bit rate : 15.9 Mb/s

Video
Format : AVC
Format profile : [email protected]/*  */
Duration : 2 h 5 min
Bit rate : 10.0 Mb/s
Width : 1 920 pixels
Height : 800 pixels
Display aspect ratio : 2.40:1
Frame rate : 23.976 (24000/1001) FPS
Bit depth : 8 bits
Stream size : 8.78 GiB (63%)
Color primaries : BT.709

Audio #1
Format : Atmos / TrueHD
Bit rate : 4 443 kb/s
Maximum bit rate : 7 878 kb/s
Channel(s) : 8 channels
Stream size : 3.90 GiB (28%)
Language : English

Audio #2
Format : AC-3
Bit rate : 640 kb/s
Channel(s) : 6 channels
Sampling rate : 48.0 kHz
Bit depth : 16 bits
Stream size : 575 MiB (4%)
Language : French

Chapters : YES
        

Related torrents

Share