Terminator.Genisys.2015.HDRip.HC.480p.x264.AAC VYTO [P2PDL] torrent download locations



Torrent contents

Size: 483.75 MB

Hash: 34C40732E77CB6E0CC6B51B2E663A6D922276F50

Torrent description(s)

  • thepiratebay
  • isohunt.to
____    ____ ____    ____ .___________.  ______   
     /   /      /   / |           | /  __    
    /   /      /   /  `---|  |----`|  |  |  | 
        /     _    _/       |  |     |  |  |  | 
       /        |  |         |  |     |  `--'  | 
    __/         |__|         |__|      ______/  
                                                  
Presenting Small Encodes with quality for years!
                                                                                                   
                                                                                                   

Terminator.Genisys.2015.HDRip.HC.480p.x264.AAC-VYTO


Genre: Action, Adventure, Sci-Fi  
http://www.imdb.com/title/tt1340138/


General
Format                         : MPEG-4
File size                      : 476 MiB
Duration                       : 2h 0mn
Overall bit rate               : 553 Kbps

Video
Format                         : AVC
Bit rate                       : 510 Kbps
Width                          : 720 pixels
Height                         : 304 pixels
Display aspect ratio           : 2.35:1
Frame rate mode                : Constant
Frame rate                     : 25.000 fps
Bit depth                      : 8 bits
Stream size                    : 439 MiB (92%)
Writing library                : x264 core 148 r2579

Audio
Format                         : AAC
Bit rate mode                  : Variable
Bit rate                       : 40.0 Kbps
Channel(s)                     : 2 channels
Channel positions              : Front: L R
Sampling rate                  : 48.0 KHz 
Compression mode               : Lossy
Stream size                    : 34.5 MiB (7%)

Screenshots:
 
http://ititli.com/jJ 
http://ititli.com/j5 
http://ititli.com/jB 
http://ititli.com/jN 
http://ititli.com/jP 
http://ititli.com/jf 
http://ititli.com/ju 
http://ititli.com/jv 
http://ititli.com/jR 
http://ititli.com/jy 
http://ititli.com/j3 
http://ititli.com/jE

----------------------------------------------------------------------------------------------------


Encoder Notes: Looking For Early Access To Anything You Can Provide DVDScr, R5, DVDR, BluRay, Direct
Audio, Music Releases and Seedboxes. If You Got anything to offer please contact us.

Support us by donating BC - 1FgwdzPsd1y25Gea8wP1qni35uGCtmkRCD
Released: 01 Jul 2015
Rated: PG-13
Runtime: 126 min
Genre: Action, Adventure, Sci-Fi
Director: Alan Taylor
Writer: Laeta Kalogridis, Patrick Lussier, James Cameron (characters), Gale Anne Hurd (characters)
Actors: Arnold Schwarzenegger, Jason Clarke, Emilia Clarke, Jai Courtney
IMDB: 7.0 (47,838 Votes)

When John Connor (Jason Clarke), leader of the human resistance, sends Sgt. Kyle Reese (Jai Courtney) back to 1984 to protect Sarah Connor (Emilia Clarke) and safeguard the future, an unexpected turn of events creates a fractured timeline. Now, Sgt. Reese finds himself in a new and unfamiliar version of the past, where he is faced with unlikely allies, including the Guardian (Arnold Schwarzenegger), dangerous new enemies, and an unexpected new mission: To reset the future...

Related torrents

Share