The Fast and The Furious 1 thru 7 Limited Edition HEVC d3g c def h torrent download locations



Torrent contents

Size: 31.42 GB

Hash: 0E9DD68D511CA4B3D9D0051224F0D957A837678D

Torrent description(s)

  • Demonoid

The Fast and The Furious 1 thru 7 Limited Edition Pack BluRay 1080p HEVC-d3g
Infomation
Format: Matroska
Format version: Version 4 / Version 2
File size: 4.45 GiB
Duration: 1 h 46 min
Overall bit rate: 5 962 kb/s
Movie name: Main feature
Writing library: Lavf57.3.100

Video
ID: 1
Format: HEVC
Format/Info: High Efficiency Video Coding
Format profile: [email protected]@High
Codec ID: V_MPEGH/ISO/HEVC
Bit rate: 4 307 kb/s
Width: 1 920 pixels
Height: 1 080 pixels
Display aspect ratio: 16:9
Frame rate mode: Variable
Original frame rate: 23.976 FPS
Color space: YUV
Chroma subsampling: 4:2:0
Bit depth: 8 bits
Default: No
Forced: No
DURATION: 01:46:57.411000000

Audio #1
ID: 2
Format: AC-3
Format/Info: Audio Coding 3
Mode extension: CM (complete main)
Format settings, Endianness: Big
Codec ID: A_AC3
Duration: 1 h 46 min
Bit rate mode: Constant
Bit rate: 640 kb/s
Channel(s): 6 channels
Channel positions: Front: L C R, Side: L R, LFE
Sampling rate: 48.0 kHz
Frame rate: 31.250 FPS (1536 spf)
Bit depth: 16 bits
Compression mode: Lossy
Stream size: 490 MiB (11%)
Language: English
Default: Yes
Forced: No
DURATION: 01:46:57.408000000

Audio #2
ID: 3
Format: AC-3
Format/Info: Audio Coding 3
Mode extension: CM (complete main)
Format settings, Endianness: Big
Codec ID: A_AC3
Duration: 1 h 46 min
Bit rate mode: Constant
Bit rate: 640 kb/s
Channel(s): 6 channels
Channel positions: Front: L C R, Side: L R, LFE
Sampling rate: 48.0 kHz
Frame rate: 31.250 FPS (1536 spf)
Bit depth: 16 bits
Compression mode: Lossy
Stream size: 490 MiB (11%)
Language: Spanish
Default: No
Forced: No
DURATION: 01:46:57.408000000

Audio #3
ID: 4
Format: AC-3
Format/Info: Audio Coding 3
Mode extension: CM (complete main)
Format settings, Endianness: Big
Codec ID: A_AC3
Duration: 1 h 46 min
Bit rate mode: Constant
Bit rate: 256 kb/s
Channel(s): 2 channels
Channel positions: Front: L R
Sampling rate: 48.0 kHz
Frame rate: 31.250 FPS (1536 spf)
Bit depth: 16 bits
Compression mode: Lossy
Stream size: 196 MiB (4%)
Language: English
Default: No
Forced: No
DURATION: 01:46:57.440000000

Text #1
ID: 5
Format: VobSub
Codec ID: S_VOBSUB
Codec ID/Info: Picture based subtitle format used on DVDs
Language: English
Default: No
Forced: No
DURATION: 01:46:37.225000000

Text #2
ID: 6
Format: VobSub
Codec ID: S_VOBSUB
Codec ID/Info: Picture based subtitle format used on DVDs
Language: Spanish
Default: No
Forced: No
DURATION: 01:46:37.225000000







Related torrents

Share