[REUP] Lethal Weapon 2 1989 (1080p Bluray x265 HEVC 10bit AAC 5.1...

  • Category Movies
  • Type HEVC/x265
  • Language English
  • Total size 2.8 GB
  • Uploaded By UTRplus
  • Downloads 312
  • Last checked 1 hour ago
  • Date uploaded 6 days ago
  • Seeders 22
  • Leechers 9

Infohash : 1BCBC815A6604264C2E32F65927405EA976B5F85



Lethal Weapon 2 1989 in 1080p, encoded with x265 in HEVC and AAC 5.1 English, with subtitles!
Encoded using the time consuming 2 pass, 10 bit color at 2500 kbps, from a Blu-ray source, for the highest quality possible.



Media Information

Code:

General
Format : Matroska
Format version : Version 4 / Version 2
File size : 2.39 GiB
Duration : 1 h 54 min
Overall bit rate : 2 996 kb/s
Movie name : Lethal Weapon 2
Encoded date : UTC 2016-12-23 23:04:36
Writing application : mkvmerge v9.6.0 ('Slave To Your Mind') 64bit
Writing library : libebml v1.3.4 + libmatroska v1.4.5

Video
ID : 1
Format : HEVC
Format/Info : High Efficiency Video Coding
Format profile : Main [email protected]@Main
Codec ID : V_MPEGH/ISO/HEVC
Duration : 1 h 54 min
Bit rate : 2 478 kb/s
Width : 1 920 pixels
Height : 800 pixels
Display aspect ratio : 2.40:1
Frame rate mode : Constant
Frame rate : 23.976 (24000/1001) FPS
Color space : YUV
Chroma subsampling : 4:2:0
Bit depth : 10 bits
Bits/(Pixel*Frame) : 0.067
Stream size : 1.98 GiB (83%)
Writing library : x265 2.1+70-78e1e1354a25:[Windows][GCC 6.2.0][64 bit] 10bit
Encoding settings : cpuid=1173503 / frame-threads=3 / numa-pools=8 / wpp / no-pmode / no-pme / no-psnr / no-ssim / log-level=2 / input-csp=1 / input-res=1920x800 / interlace=0 / total-frames=164647 / level-idc=0 / high-tier=1 / uhd-bd=0 / ref=3 / no-allow-non-conformance / no-repeat-headers / annexb / no-aud / no-hrd / info / hash=0 / no-temporal-layers / open-gop / min-keyint=23 / keyint=250 / bframes=4 / b-adapt=2 / b-pyramid / bframe-bias=0 / rc-lookahead=20 / lookahead-slices=5 / scenecut=40 / no-intra-refresh / ctu=64 / min-cu-size=8 / no-rect / no-amp / max-tu-size=32 / tu-inter-depth=1 / tu-intra-depth=1 / limit-tu=0 / rdoq-level=0 / signhide / no-tskip / nr-intra=0 / nr-inter=0 / no-constrained-intra / strong-intra-smoothing / max-merge=2 / limit-refs=3 / no-limit-modes / me=1 / subme=2 / merange=57 / temporal-mvp / weightp / no-weightb / no-analyze-src-pics / deblock=0:0 / sao / no-sao-non-deblock / rd=3 / no-early-skip / rskip / no-fast-intra / no-tskip-fast / no-cu-lossless / no-b-intra / rdpenalty=0 / psy-rd=2.00 / psy-rdoq=0.00 / no-rd-refine / analysis-mode=0 / no-lossless / cbqpoffs=0 / crqpoffs=0 / rc=abr / bitrate=2477 / qcomp=0.60 / qpstep=4 / stats-write=0 / stats-read=2 / stats-file=E:\Lethal / Weapon / cplxblur=20.0 / qblur=0.5 / ipratio=1.40 / pbratio=1.30 / aq-mode=2 / aq-strength=1.00 / cutree / zone-count=0 / no-strict-cbr / qg-size=32 / no-rc-grain / qpmax=69 / qpmin=0 / sar=0 / overscan=0 / videoformat=5 / range=0 / colorprim=2 / transfer=2 / colormatrix=2 / chromaloc=0 / display-window=0 / max-cll=0,0 / min-luma=0 / max-luma=1023 / log2-max-poc-lsb=8 / vui-timing-info / vui-hrd-info / slices=1 / opt-qp-pps / opt-ref-list-length-pps / no-multi-pass-opt-rps / scenecut-bias=0.05
Default : Yes
Forced : No

Audio #1
ID : 2
Format : AAC
Format/Info : Advanced Audio Codec
Format profile : LC
Codec ID : A_AAC
Duration : 1 h 54 min
Bit rate : 339 kb/s
Channel(s) : 6 channels
Channel positions : Front: L C R, Side: L R, LFE
Sampling rate : 48.0 kHz
Frame rate : 46.875 FPS (1024 spf)
Compression mode : Lossy
Delay relative to video : 20 ms
Stream size : 278 MiB (11%)
Language : English
Default : Yes
Forced : No

Audio #2
ID : 3
Format : AAC
Format/Info : Advanced Audio Codec
Format profile : HE-AAC / LC
Codec ID : A_AAC
Duration : 1 h 54 min
Bit rate : 66.2 kb/s
Channel(s) : 2 channels
Channel positions : Front: L R
Sampling rate : 48.0 kHz / 24.0 kHz
Frame rate : 23.438 FPS (1024 spf)
Compression mode : Lossy
Delay relative to video : 40 ms
Stream size : 53.9 MiB (2%)
Title : Commentary
Language : English
Default : No
Forced : No

Text #1
ID : 4
Format : VobSub
Muxing mode : zlib
Codec ID : S_VOBSUB
Codec ID/Info : Picture based subtitle format used on DVDs
Duration : 1 h 53 min
Bit rate : 5 091 b/s
Count of elements : 1330
Stream size : 4.15 MiB (0%)
Language : English
Default : No
Forced : No

Text #2
ID : 5
Format : VobSub
Muxing mode : zlib
Codec ID : S_VOBSUB
Codec ID/Info : Picture based subtitle format used on DVDs
Duration : 1 h 53 min
Bit rate : 4 334 b/s
Count of elements : 1236
Stream size : 3.53 MiB (0%)
Language : French
Default : No
Forced : No

Text #3
ID : 6
Format : VobSub
Muxing mode : zlib
Codec ID : S_VOBSUB
Codec ID/Info : Picture based subtitle format used on DVDs
Duration : 1 h 53 min
Bit rate : 5 038 b/s
Count of elements : 1333
Stream size : 4.10 MiB (0%)
Language : German
Default : No
Forced : No

Text #4
ID : 7
Format : VobSub
Muxing mode : zlib
Codec ID : S_VOBSUB
Codec ID/Info : Picture based subtitle format used on DVDs
Duration : 1 h 54 min
Bit rate : 5 289 b/s
Count of elements : 1271
Stream size : 4.31 MiB (0%)
Language : Italian
Default : No
Forced : No

Text #5
ID : 8
Format : VobSub
Muxing mode : zlib
Codec ID : S_VOBSUB
Codec ID/Info : Picture based subtitle format used on DVDs
Duration : 1 h 53 min
Bit rate : 4 572 b/s
Count of elements : 1207
Stream size : 3.73 MiB (0%)
Language : Spanish
Default : No
Forced : No

Text #6
ID : 9
Format : VobSub
Muxing mode : zlib
Codec ID : S_VOBSUB
Codec ID/Info : Picture based subtitle format used on DVDs
Duration : 1 h 53 min
Bit rate : 4 835 b/s
Count of elements : 1275
Stream size : 3.94 MiB (0%)
Language : Bulgarian
Default : No
Forced : No

Text #7
ID : 10
Format : VobSub
Muxing mode : zlib
Codec ID : S_VOBSUB
Codec ID/Info : Picture based subtitle format used on DVDs
Duration : 1 h 53 min
Bit rate : 6 043 b/s
Count of elements : 1326
Stream size : 4.93 MiB (0%)
Language : Chinese
Default : No
Forced : No

Text #8
ID : 11
Format : VobSub
Muxing mode : zlib
Codec ID : S_VOBSUB
Codec ID/Info : Picture based subtitle format used on DVDs
Duration : 1 h 54 min
Bit rate : 8 421 b/s
Count of elements : 1698
Stream size : 6.88 MiB (0%)
Title : Commentary
Language : Chinese
Default : No
Forced : No

Text #9
ID : 12
Format : VobSub
Muxing mode : zlib
Codec ID : S_VOBSUB
Codec ID/Info : Picture based subtitle format used on DVDs
Duration : 1 h 53 min
Bit rate : 4 220 b/s
Count of elements : 1273
Stream size : 3.44 MiB (0%)
Language : Czech
Default : No
Forced : No

Text #10
ID : 13
Format : VobSub
Muxing mode : zlib
Codec ID : S_VOBSUB
Codec ID/Info : Picture based subtitle format used on DVDs
Duration : 1 h 53 min
Bit rate : 4 212 b/s
Count of elements : 1059
Stream size : 3.43 MiB (0%)
Language : Danish
Default : No
Forced : No

Text #11
ID : 14
Format : VobSub
Muxing mode : zlib
Codec ID : S_VOBSUB
Codec ID/Info : Picture based subtitle format used on DVDs
Duration : 1 h 53 min
Bit rate : 4 480 b/s
Count of elements : 1203
Stream size : 3.65 MiB (0%)
Language : Dutch
Default : No
Forced : No

Text #12
ID : 15
Format : VobSub
Muxing mode : zlib
Codec ID : S_VOBSUB
Codec ID/Info : Picture based subtitle format used on DVDs
Duration : 1 h 53 min
Bit rate : 4 133 b/s
Count of elements : 964
Stream size : 3.37 MiB (0%)
Language : Finnish
Default : No
Forced : No

Text #13
ID : 16
Format : VobSub
Muxing mode : zlib
Codec ID : S_VOBSUB
Codec ID/Info : Picture based subtitle format used on DVDs
Duration : 1 h 53 min
Bit rate : 4 298 b/s
Count of elements : 1274
Stream size : 3.50 MiB (0%)
Language : Greek
Default : No
Forced : No

Text #14
ID : 17
Format : VobSub
Muxing mode : zlib
Codec ID : S_VOBSUB
Codec ID/Info : Picture based subtitle format used on DVDs
Duration : 1 h 53 min
Bit rate : 4 072 b/s
Count of elements : 1249
Stream size : 3.32 MiB (0%)
Language : Hebrew
Default : No
Forced : No

Text #15
ID : 18
Format : VobSub
Muxing mode : zlib
Codec ID : S_VOBSUB
Codec ID/Info : Picture based subtitle format used on DVDs
Duration : 1 h 53 min
Bit rate : 4 061 b/s
Count of elements : 1275
Stream size : 3.31 MiB (0%)
Language : Korean
Default : No
Forced : No

Text #16
ID : 19
Format : VobSub
Muxing mode : zlib
Codec ID : S_VOBSUB
Codec ID/Info : Picture based subtitle format used on DVDs
Duration : 1 h 53 min
Bit rate : 4 475 b/s
Count of elements : 1188
Stream size : 3.65 MiB (0%)
Language : Norwegian Bokmal
Default : No
Forced : No

Text #17
ID : 20
Format : VobSub
Muxing mode : zlib
Codec ID : S_VOBSUB
Codec ID/Info : Picture based subtitle format used on DVDs
Duration : 1 h 53 min
Bit rate : 4 254 b/s
Count of elements : 1260
Stream size : 3.47 MiB (0%)
Language : Polish
Default : No
Forced : No

Text #18
ID : 21
Format : VobSub
Muxing mode : zlib
Codec ID : S_VOBSUB
Codec ID/Info : Picture based subtitle format used on DVDs
Duration : 1 h 53 min
Bit rate : 4 313 b/s
Count of elements : 1199
Stream size : 3.52 MiB (0%)
Language : Portuguese
Default : No
Forced : No

Text #19
ID : 22
Format : VobSub
Muxing mode : zlib
Codec ID : S_VOBSUB
Codec ID/Info : Picture based subtitle format used on DVDs
Duration : 1 h 53 min
Bit rate : 4 518 b/s
Count of elements : 1271
Stream size : 3.68 MiB (0%)
Language : Russian
Default : No
Forced : No

Text #20
ID : 23
Format : VobSub
Muxing mode : zlib
Codec ID : S_VOBSUB
Codec ID/Info : Picture based subtitle format used on DVDs
Duration : 1 h 53 min
Bit rate : 4 761 b/s
Count of elements : 1273
Stream size : 3.88 MiB (0%)
Language : Spanish
Default : No
Forced : No

Text #21
ID : 24
Format : VobSub
Muxing mode : zlib
Codec ID : S_VOBSUB
Codec ID/Info : Picture based subtitle format used on DVDs
Duration : 1 h 53 min
Bit rate : 4 152 b/s
Count of elements : 1235
Stream size : 3.38 MiB (0%)
Language : Swedish
Default : No
Forced : No

Text #22
ID : 25
Format : VobSub
Muxing mode : zlib
Codec ID : S_VOBSUB
Codec ID/Info : Picture based subtitle format used on DVDs
Duration : 1 h 53 min
Bit rate : 5 024 b/s
Count of elements : 1274
Stream size : 4.10 MiB (0%)
Language : Thai
Default : No
Forced : No

Text #23
ID : 26
Format : VobSub
Muxing mode : zlib
Codec ID : S_VOBSUB
Codec ID/Info : Picture based subtitle format used on DVDs
Duration : 1 h 53 min
Bit rate : 4 590 b/s
Count of elements : 1270
Stream size : 3.74 MiB (0%)
Language : Turkish
Default : No
Forced : No

Menu
00:00:00.000 : en:Chapter 01
00:07:51.012 : en:Chapter 02
00:10:00.266 : en:Chapter 03
00:11:20.262 : en:Chapter 04
00:12:58.903 : en:Chapter 05
00:16:25.818 : en:Chapter 06
00:18:20.933 : en:Chapter 07
00:21:41.883 : en:Chapter 08
00:23:41.962 : en:Chapter 09
00:25:56.763 : en:Chapter 10
00:30:25.156 : en:Chapter 11
00:33:51.779 : en:Chapter 12
00:35:59.115 : en:Chapter 13
00:39:39.668 : en:Chapter 14
00:42:38.347 : en:Chapter 15
00:43:58.844 : en:Chapter 16
00:45:34.022 : en:Chapter 17
00:47:12.079 : en:Chapter 18
00:48:32.242 : en:Chapter 19
00:50:32.279 : en:Chapter 20
00:51:44.351 : en:Chapter 21
00:55:06.928 : en:Chapter 22
01:00:13.234 : en:Chapter 23
01:06:37.368 : en:Chapter 24
01:07:56.405 : en:Chapter 25
01:12:04.069 : en:Chapter 26
01:15:03.499 : en:Chapter 27
01:19:24.885 : en:Chapter 28
01:24:13.131 : en:Chapter 29
01:26:40.945 : en:Chapter 30
01:28:06.281 : en:Chapter 31
01:30:29.966 : en:Chapter 32
01:33:54.337 : en:Chapter 33
01:37:22.002 : en:Chapter 34
01:41:08.228 : en:Chapter 35
01:43:15.105 : en:Chapter 36
01:45:36.038 : en:Chapter 37
01:46:36.556 : en:Chapter 38
01:49:30.105 : en:Chapter 39


Source Information

Code:

Complete name : Lethal_Weapon_2_t04.mkv
File size : 25.7 GiB
Duration : 1 h 54 min
Overall bit rate : 32.1 Mb/s


Files:

Lethal Weapon 2 1989 (1080p Bluray x265 HEVC 10bit AAC 5.1 Tigole) Featurettes
  • A Family Affair - Bringing Lethal Weapon to Life.mkv (363.8 MB)
  • Deleted Scenes.mkv (11.6 MB)
  • Stunts & Action.mkv (16.5 MB)
  • Trailer.mkv (5.0 MB)
  • Lethal Weapon 2 1989 (1080p x265 10bit Tigole).mkv (2.4 GB)

There are currently no comments. Feel free to leave one :)

Code:

  • udp://tracker.torrent.eu.org:451/announce
  • udp://tracker.opentrackr.org:1337/announce
  • udp://tracker.coppersurfer.tk:6969/announce